Невиновный / The Wronged Man (Том Маклафлин / Tom McLoughlin) [2010, США, драма, биография, DVDRip] MVO original eng

Ответить на тему
 
Автор Сообщение

user ®

Стаж: 7 лет 7 месяцев

Сообщений: 20008

Пост Пост: #1 от 23-Дек-2010 13:44

[Цитировать]

Невиновный / The Wronged Man
Страна: США, Sony Pictures Television
Жанр: драма, биография
Год выпуска: 2010
Продолжительность: 01:25:26
Перевод: Профессиональный (многоголосый закадровый)
Cубтитры: нет
Оригинальная аудиодорожка: английский
Режиссер: Том Маклафлин / Tom McLoughlin
В ролях: Джулия Ормонд, Махершалалхашбаз Али, Брюс МакКиннон, Омар Дж. Дорси, Рода Гриффис, Тони Стюарт, Расселл Дархэм Комегис, Люсиус Бастон мл.
Описание: 22 года — огромная часть жизни. Столько лет длилась борьба за то, чтобы обвинения в тяжком преступлении были сняты с невиновного человека. Все это время герой драмы Калвин Уиллис сидел в тюрьме. У кого хватило сил биться с системой за осужденного так долго и почти без надежды на успех? Джанет Грегори не была ни адвокатом, ни родственником Калвина. Она просто верила в справедливость, получив доказательства его невиновности.
Доп. информация: Кинопоиск: 8.429 (7)
IMDB: 7.20 (30)
Премьера (мир): 17 января 2010
Релиз на DVD: 2 сентября 2010, 15 июля 2010, «Columbia\Sony»
Сэмпл: http://multi-up.com/304412
Качество видео: DVDRip
Формат видео: AVI
Видео: XVID 720x400 25.00fps 1561Kbps
Аудио: Rus: Dolby AC3 48000Hz 6ch 384Kbps
Аудио 2: Eng: Dolby AC3 48000Hz 6ch 384Kbps

MediaInfo

C:\DOCUME~1\Admin\LOCALS~1\Temp\Sample.Nevinovn.avi
General
Complete name : C:\DOCUME~1\Admin\LOCALS~1\Temp\Sample.Nevinovn.avi
Format : AVI
Format/Info : Audio Video Interleave
File size : 9.06 MiB
Duration : 34s 720ms
Overall bit rate : 2 189 Kbps
Writing application : VirtualDubMod 1.5.10.2 (build 2540/release)
Writing library : VirtualDubMod build 2540/release
Video #0
ID : 0
Format : MPEG-4 Visual
Format profile : AdvancedSimple@L5
Format settings, BVOP : Yes
Format settings, QPel : No
Format settings, GMC : No warppoints
Format settings, Matrix : Default (H.263)
Codec ID : XVID
Codec ID/Hint : XviD
Duration : 34s 720ms
Bit rate : 1 403 Kbps
Width : 720 pixels
Height : 400 pixels
Display aspect ratio : 16:9
Frame rate : 25.000 fps
Resolution : 24 bits
Colorimetry : 4:2:0
Scan type : Progressive
Bits/(Pixel*Frame) : 0.195
Stream size : 5.81 MiB (64%)
Writing library : XviD 1.2.1 (UTC 2008-12-04)
Audio #1
ID : 1
Format : AC-3
Format/Info : Audio Coding 3
Codec ID : 2000
Duration : 34s 720ms
Bit rate mode : Constant
Bit rate : 384 Kbps
Channel(s) : 6 channels
Channel positions : Front: L C R, Surround: L R, LFE
Sampling rate : 48.0 KHz
Stream size : 1.59 MiB (18%)
Alignment : Split accross interleaves
Interleave, duration : 41 ms (1.01 video frame)
Interleave, preload duration : 500 ms
Audio #2
ID : 2
Format : AC-3
Format/Info : Audio Coding 3
Codec ID : 2000
Duration : 34s 720ms
Bit rate mode : Constant
Bit rate : 384 Kbps
Channel(s) : 6 channels
Channel positions : Front: L C R, Surround: L R, LFE
Sampling rate : 48.0 KHz
Stream size : 1.59 MiB (18%)
Alignment : Split accross interleaves
Interleave, duration : 41 ms (1.01 video frame)
Interleave, preload duration : 500 ms

Скриншот с названием

Скриншоты

Скачать

Скачать торрент!

Как скачивать? · Что такое торрент? · Рейтинг и ограничения

Сайт не распространяет и не хранит электронные версии произведений, а лишь предоставляет доступ к создаваемому пользователями каталогу ссылок на торрент-файлы, которые содержат только списки хеш-сумм

[Профиль] [ЛС]
Показать сообщения:    
Ответить на тему

Текущее время: Сегодня 08:36

Часовой пояс: GMT + 4



Вы не можете начинать темы
Вы не можете отвечать на сообщения
Вы не можете редактировать свои сообщения
Вы не можете удалять свои сообщения
Вы не можете голосовать в опросах
Вы не можете прикреплять файлы к сообщениям
Вы не можете скачивать файлы