Выхода нет / No Escape (Джон Эрик Даудл / John Erick Dowdle) [2015, США, боевик, триллер, BDRip 1080p] Dub (IPTV) + Sub Rus, Eng + Original Eng

Ответить на тему
 
Автор Сообщение

user ®

Стаж: 7 лет 7 месяцев

Сообщений: 20008

Пост Пост: #1 от 04-Дек-2015 01:18

[Цитировать]

Выхода нет / No Escape
Страна: США
Жанр: боевик, триллер
Год выпуска: 2015
Продолжительность: 01:43:07-Перевод: Профессиональный (дублированный) IPTV
Cубтитры: русские, английскиe
Оригинальная аудиодорожка: английский-Режиссер: Джон Эрик Даудл / John Erick Dowdle-В ролях: Оуэн Уилсон, Лэйк Белл, Пирс Броснан, Стерлинг Джеринс, Thanawut Ketsaro, Чатчаваи Камонсакпитак, Сахайак Бунсанакит, Танапол Чуксрида, Нопханд Буньяй, Канарпат Финтиянг
Описание: Американец вместе со своей семьей переезжает в Юго-Восточную Азию, но мирно пожить там не удается: вокруг разгорается жестокий военный переворот.-Релиз от:
-Тип релиза: BDRip 1080p
Контейнер: MKV-Видео: 1920x1036 (1,85:1), 23,976 fps, MPEG-4 AVC, ~ 15000 kbps-Аудио 1: Russian: 48 kHz, AC3 3/2 (L,C,R,l,r) + LFE ch, ~448 kbps avg IPTV
Аудио 2: English: 48 kHz, DTS 3/2 (L,C,R,l,r) + LFE ch, ~1509 kbps avg
Аудио 3: English: 48 kHz, AC3, 2/0 (L,R), ~ 192 kbps avg Commentary
Сэмпл MediaInfo
Общее
Уникальный идентификатор : 229809356748993808394102479521715210478 (0xACE3AC1317A1F689AC7A2AF9AA7E48EE)
Полное имя : D:\No Escape 1080p\No.Escape.2015.BDRip.1080p.BLUEBIRD.mkv
Формат : Matroska
Версия формата : Version 2
Размер файла : 12,4 Гбайт
Продолжительность : 1 ч. 43 м.
Общий поток : 17,1 Мбит/сек
Дата кодирования : UTC 2015-12-02 10:29:21
Программа кодирования : mkvmerge v7.9.0 ('Birds') 64bit
Библиотека кодирования : libebml v1.3.1 + libmatroska v1.4.2
Видео
Идентификатор : 1
Формат : AVC
Формат/Информация : Advanced Video Codec
Профиль формата : High@L4.1
Параметр CABAC формата : Да
Параметр ReFrames формата : 4 кадра
Идентификатор кодека : V_MPEG4/ISO/AVC
Продолжительность : 1 ч. 43 м.
Битрейт : 15,0 Мбит/сек
Ширина : 1920 пикселей
Высота : 1036 пикселей
Соотношение сторон : 1,85:1
Режим частоты кадров : Постоянный
Частота кадров : 23,976 кадра/сек
Цветовое пространство : YUV
Субдискретизация насыщенности : 4:2:0
Битовая глубина : 8 бит
Тип развёртки : Прогрессивная
Бит/(Пиксели*Кадры) : 0.315
Размер потока : 10,6 Гбайт (85%)
Библиотека кодирования : x264 core 142 r2479 dd79a61
Настройки программы : cabac=1 / ref=4 / deblock=1:-3:-3 / analyse=0x3:0x133 / me=umh / subme=11 / psy=1 / psy_rd=1.05:0.10 / mixed_ref=1 / me_range=64 / chroma_me=1 / trellis=2 / 8x8dct=1 / cqm=0 / deadzone=21,11 / fast_pskip=0 / chroma_qp_offset=-3 / threads=12 / lookahead_threads=2 / sliced_threads=0 / nr=0 / decimate=0 / interlaced=0 / bluray_compat=0 / constrained_intra=0 / bframes=8 / b_pyramid=2 / b_adapt=2 / b_bias=0 / direct=3 / weightb=1 / open_gop=0 / weightp=2 / keyint=250 / keyint_min=23 / scenecut=40 / intra_refresh=0 / rc_lookahead=80 / rc=2pass / mbtree=1 / bitrate=15000 / ratetol=1.0 / qcomp=0.70 / qpmin=0 / qpmax=69 / qpstep=4 / cplxblur=20.0 / qblur=0.5 / vbv_maxrate=38000 / vbv_bufsize=30000 / nal_hrd=none / filler=0 / ip_ratio=1.40 / aq=1:0.70
Язык : English
Default : Да
Forced : Нет
Аудио #1
Идентификатор : 2
Формат : AC-3
Формат/Информация : Audio Coding 3
Расширение режима : CM (complete main)
Параметр Endianness формата : Big
Идентификатор кодека : A_AC3
Продолжительность : 1 ч. 43 м.
Вид битрейта : Постоянный
Битрейт : 448 Кбит/сек
Каналы : 6 каналов
Расположение каналов : Front: L C R, Side: L R, LFE
Частота : 48,0 КГц
Битовая глубина : 16 бит
Метод сжатия : С потерями
Размер потока : 331 Мбайт (3%)
Заголовок : IPTV
Язык : Russian
Default : Да
Forced : Нет
Аудио #2
Идентификатор : 3
Формат : DTS
Формат/Информация : Digital Theater Systems
Режим : 16
Параметр Endianness формата : Big
Идентификатор кодека : A_DTS
Продолжительность : 1 ч. 43 м.
Вид битрейта : Постоянный
Битрейт : 1509 Кбит/сек
Каналы : 6 каналов
Расположение каналов : Front: L C R, Side: L R, LFE
Частота : 48,0 КГц
Битовая глубина : 24 бит
Метод сжатия : С потерями
Размер потока : 1,09 Гбайт (9%)
Язык : English
Default : Нет
Forced : Нет
Аудио #3
Идентификатор : 4
Формат : AC-3
Формат/Информация : Audio Coding 3
Расширение режима : CM (complete main)
Параметр Endianness формата : Big
Идентификатор кодека : A_AC3
Продолжительность : 1 ч. 43 м.
Вид битрейта : Постоянный
Битрейт : 192 Кбит/сек
Каналы : 2 канала
Расположение каналов : Front: L R
Частота : 48,0 КГц
Битовая глубина : 16 бит
Метод сжатия : С потерями
Размер потока : 142 Мбайт (1%)
Язык : English
Default : Нет
Forced : Нет
Текст #1
Идентификатор : 5
Формат : UTF-8
Идентификатор кодека : S_TEXT/UTF8
Идентификатор кодека/Информация : UTF-8 Plain Text
Язык : Russian
Default : Нет
Forced : Нет
Текст #2
Идентификатор : 6
Формат : UTF-8
Идентификатор кодека : S_TEXT/UTF8
Идентификатор кодека/Информация : UTF-8 Plain Text
Язык : English
Default : Нет
Forced : Нет
Меню
00:00:00.000 : en:Chapter 1
00:04:10.041 : en:Chapter 2
00:10:57.866 : en:Chapter 3
00:18:40.703 : en:Chapter 4
00:25:31.447 : en:Chapter 5
00:34:40.787 : en:Chapter 6
00:40:04.360 : en:Chapter 7
00:46:11.310 : en:Chapter 8
00:52:06.498 : en:Chapter 9
00:57:36.828 : en:Chapter 10
01:03:55.790 : en:Chapter 11
01:11:22.487 : en:Chapter 12
01:18:58.651 : en:Chapter 13
01:25:01.471 : en:Chapter 14
01:31:11.383 : en:Chapter 15
01:37:38.978 : en:Chapter 16
Скриншоты
Скачать

Скачать торрент!

Как скачивать? · Что такое торрент? · Рейтинг и ограничения

Сайт не распространяет и не хранит электронные версии произведений, а лишь предоставляет доступ к создаваемому пользователями каталогу ссылок на торрент-файлы, которые содержат только списки хеш-сумм

[Профиль] [ЛС]
Показать сообщения:    
Ответить на тему

Текущее время: Сегодня 17:31

Часовой пояс: GMT + 4



Вы не можете начинать темы
Вы не можете отвечать на сообщения
Вы не можете редактировать свои сообщения
Вы не можете удалять свои сообщения
Вы не можете голосовать в опросах
Вы не можете прикреплять файлы к сообщениям
Вы не можете скачивать файлы