Так далеко и так близко / Toku de Zutto Soba ni Iru / Far Away, So Close (Масахико Нагасава/Masahiko Nagasawa) [2013, Япония, Драма, мелодрама, DVDRip] Sub Rus

Ответить на тему
 
Автор Сообщение

user ®

Стаж: 13 лет

Сообщений: 15071

Пост Пост: #1 от 03-Дек-2015 19:06

[Цитировать]

Так далеко и так близко / Toku de Zutto Soba ni Iru / Far Away, So Close
Страна: Япония
Жанр: Драма, мелодрама
Год выпуска: 2013
Продолжительность: 01:48:08
Перевод: Русские субтитры, перевод meykasahara, в контейнере, отключаемые, srt
Cубтитры: русские
Оригинальная аудиодорожка: Японский
Режиссер: Масахико Нагасава \ Masahiko Nagasawa
В ролях: Кана Курашина, Юта Накано, Кана, Эма Фуджисава, Нана Окада
Описание: 27-летняя Сакуми Шимура, после автомобильной аварии, потеряла воспоминания о последних 10 годах жизни. Она помнит только события до 17-летнего возраста. Девушка не очень расстроена, как ни странно, и чувствует себя вполне комфортно. Пока незнакомая женщина не произносит странную фразу - "Жаль, что ты не умерла..."
Доп. информация: Экранизация романа Kyoko Inukai.
Перевод мой, meykasahara, за англ субтитры спасибо Euphoric Translations
IMDB: http://www.imdb.com/title/tt2393730/
Asianwiki: http://asianwiki.com/Far_Away,_So_Close
Сэмпл: http://sendfile.su/1179247
Качество видео: DVDRip
Формат видео: MKV
Видео: MPEG4, 720х362, 4:2:0, 1428 Kbps, 23.976 fps
Аудио: AC-3, 48 KHz, 448 Kbps, 6 ch, Front: L C R, Side: L R, LFE
Формат субтитров: softsub (SRT)
MediaInfo
\Far.Away.So.Close.2013.DVDRip.mkv
Format : Matroska
Format version : Version 4 / Version 2
File size : 1.45 GiB
Duration : 1h 48mn
Overall bit rate : 1 914 Kbps
Encoded date : UTC
Writing application : mkvmerge v6.0.0 ('Coming Up For Air') built on Jan 20 2013 09:52:00
Writing library : Lavf55.12.0
Video
ID : 1
Format : AVC
Format/Info : Advanced Video Codec
Format profile : High@L3
Format settings, CABAC : Yes
Format settings, ReFrames : 5 frames
Codec ID : V_MPEG4/ISO/AVC
Duration : 1h 48mn
Bit rate : 1 428 Kbps
Width : 720 pixels
Height : 362 pixels
Display aspect ratio : 2.35:1
Original display aspect rat : 2.35:1
Frame rate mode : Constant
Frame rate : 23.976 fps
Color space : YUV
Chroma subsampling : 4:2:0
Bit depth : 8 bits
Scan type : Progressive
Bits/(Pixel*Frame) : 0.228
Stream size : 1.08 GiB (75%)
Writing library : x264 core 142 r2479 dd79a61
Encoding settings : cabac=1 / ref=6 / deblock=1:-2:-2 / analyse=0x3:0x133 / me=umh / subme=9 / psy=1 / psy_rd=1.00:0.00 / mixed_ref=1 / me_range=24 / chroma_me=1 / trellis=2 / 8x8dct=1 / cqm=0 / deadzone=21,11 / fast_pskip=0 / chroma_qp_offset=-2 / threads=12 / lookahead_threads=1 / sliced_threads=0 / nr=0 / decimate=1 / interlaced=0 / bluray_compat=0 / constrained_intra=0 / bframes=6 / b_pyramid=1 / b_adapt=2 / b_bias=0 / direct=3 / weightb=1 / open_gop=0 / weightp=2 / keyint=240 / keyint_min=24 / scenecut=40 / intra_refresh=0 / rc_lookahead=50 / rc=crf / mbtree=1 / crf=14.0 / qcomp=0.60 / qpmin=0 / qpmax=69 / qpstep=4 / ip_ratio=1.40 / aq=1:1.20
Default : Yes
Forced : No
Color range : Limited
Color primaries : BT.601 NTSC
Transfer characteristics : BT.709
Matrix coefficients : BT.601
DURATION : 01:48:07.815000000
NUMBER_OF_FRAMES : 155552
NUMBER_OF_BYTES : 1187185852
_STATISTICS_WRITING_APP : mkvmerge v8.4.0 ('A better way to fly') 64bit
_STATISTICS_WRITING_DATE_UT : 2015-10-14 21:01:48
_STATISTICS_TAGS : BPS DURATION NUMBER_OF_FRAMES NUMBER_OF_BYTES
Audio
ID : 2
Format : AC-3
Format/Info : Audio Coding 3
Mode extension : CM (complete main)
Format settings, Endianness : Big
Codec ID : A_AC3
Duration : 1h 48mn
Bit rate mode : Constant
Bit rate : 448 Kbps
Channel(s) : 6 channels
Channel positions : Front: L C R, Side: L R, LFE
Sampling rate : 48.0 KHz
Compression mode : Lossy
Stream size : 346 MiB (23%)
Title : Surround
Language : Japanese
Default : Yes
Forced : No
DURATION : 01:48:07.808000000
NUMBER_OF_FRAMES : 202744
NUMBER_OF_BYTES : 363317248
_STATISTICS_WRITING_APP : mkvmerge v8.4.0 ('A better way to fly') 64bit
_STATISTICS_WRITING_DATE_UT : 2015-10-14 21:01:48
_STATISTICS_TAGS : BPS DURATION NUMBER_OF_FRAMES NUMBER_OF_BYTES
Text
ID : 3
Format : UTF-8
Codec ID : S_TEXT/UTF8
Codec ID/Info : UTF-8 Plain Text
Language : Russian
Default : Yes
Forced : No
Menu
00:00:00.000 : :Chapter 1
00:06:27.637 : :Chapter 2
00:14:55.811 : :Chapter 3
00:20:35.150 : :Chapter 4
00:24:35.557 : :Chapter 5
00:31:07.615 : :Chapter 6
00:40:59.040 : :Chapter 7
00:48:04.131 : :Chapter 8
00:58:17.077 : :Chapter 9
01:07:03.936 : :Chapter 10
01:19:23.675 : :Chapter 11
01:25:08.853 : :Chapter 12
01:33:57.590 : :Chapter 13
01:42:41.447 : :Chapter 14
Скриншот c названием фильма Скриншоты Пример субтитров
198
00:20:59,430 --> 00:21:01,870
Почести специальному гостю!
199
00:21:03,070 --> 00:21:04,560
Сегодня же не день рождения!
200
00:21:09,200 --> 00:21:11,040
- Подвинься там!
- Почему?
201
00:21:14,370 --> 00:21:16,020
Сакуми-чан!
202
00:21:16,540 --> 00:21:17,800
Ты помнишь меня?
203
00:21:20,410 --> 00:21:22,090
Мураяма Сакико?
204
00:21:22,090 --> 00:21:23,170
Верно!
205
00:21:24,020 --> 00:21:25,360
Ого!
206
00:21:25,680 --> 00:21:27,310
Такой большой живот!
207
00:21:27,500 --> 00:21:29,610
Она родится через 2 месяца.
208
00:21:29,690 --> 00:21:31,060
Круть!
209
00:21:32,250 --> 00:21:33,460
Ты домохозяйка?
210
00:21:33,460 --> 00:21:35,990
Ага. Мой муж на 20 лет старше.
211
00:21:35,990 --> 00:21:38,490
И дома еще двое детей!
212
00:21:41,330 --> 00:21:42,640
Эй, Шуно!
213
00:21:42,920 --> 00:21:44,380
Ой, ты же сейчас Шимура.
214
00:21:45,950 --> 00:21:47,610
Я Аоки!
Скачать

Скачать торрент! Так далеко и так близко / Toku de Zutto Soba ni Iru / Far Away, So Close (Масахико Нагасава/Masahiko Nagasawa) [2013, Япония, Драма, мелодрама, DVDRip] Sub Rus

Как скачивать? · Что такое торрент? · Рейтинг и ограничения

Сайт не распространяет и не хранит электронные версии произведений, а лишь предоставляет доступ к создаваемому пользователями каталогу ссылок на торрент-файлы, которые содержат только списки хеш-сумм

[Профиль] [ЛС]
Показать сообщения:    
Ответить на тему

Текущее время: Сегодня 11:13

Часовой пояс: GMT + 4



Вы не можете начинать темы
Вы не можете отвечать на сообщения
Вы не можете редактировать свои сообщения
Вы не можете удалять свои сообщения
Вы не можете голосовать в опросах
Вы не можете прикреплять файлы к сообщениям
Вы не можете скачивать файлы