Плохие парни / Bad Boys (Майкл Бэй / Michael Bay) [1995, США, боевик, комедия, BDRip 1080p] [Remastered] Dub + MVO + 3х AVO (Гаврилов, диктор CDV, Живов) + 2x VO (Завгородний, Яроцкий) + Original Eng + Sub Rus, Eng

Ответить на тему
 
Автор Сообщение

user ®

Стаж: 7 лет 7 месяцев

Сообщений: 20008

Пост Пост: #1 от 03-Дек-2015 12:54

[Цитировать]

Плохие парни
Bad Boys
-
-
- Год выхода: 1995
Страна: США
Жанр: Боевик, комедия
Продолжительность: 01:58:50--Перевод: Профессиональный (полное дублирование)
Перевод: Профессиональный (многоголосый закадровый)
Перевод: Одноголосый закадровый - В. Завгородний
Перевод: Авторский (одноголосый закадровый) - А. Гаврилов
Перевод: Одноголосый закадровый - kyberpunk / М. Яроцкий
Перевод: Авторский (одноголосый закадровый) - диктор CDV
Перевод: Авторский (одноголосый закадровый) - Ю.Живов
Оригинальная аудиодорожка: Английский
Субтитры: Русские, английские-Режиссер: Майкл Бэй / Michael Bay
В ролях: Уилл Смит, Мартин Лоуренс, Теа Леони, Чеки Карио, Джо Пантольяно, Марг Хельгенбергер, Нестор Серрано, Хулио Оскар Мечосо, Тереза Рэндл, Саверио Гуэрра
Описание: Они - полная противоположность друг друга. Один из них - примерный семьянин и не имеет состояния, другой богат и пользуется всеми благами холостяцкой жизни. Помимо дружбы их объединяет работа в полиции. Их новое задание - поймать жестокого преступника, укравшего наркотики с секретного склада, а также спасти девушку, которая случайно оказалась на его пути. Но для этого друзьям придется поменяться местами...-- --Качество видео: BDRip 1080p
Контейнер: MKV
Видео кодек: H264
Аудио кодек: AC3, DTS
Видео: MPEG4 Video (H264), 1920x1032, 23.976fps, 12.0 Mbps
Аудио #1: Русский: DTS, 48000 Hz, 6ch, 768 kbps - Дубляж
Аудио #2: Русский: Dolby AC3, 48000 Hz, 6ch, 448 kbps - Многоголосый закадровый
Аудио #3: Русский: DTS, 48000 Hz, 6ch, 768 kbps - Одноголосый закадровый, В. Завгородний
Аудио #4: Русский: DTS, 48000 Hz, 6ch, 768 kbps - Одноголосый закадровый, М. Яроцкий
Аудио #5: Русский: DTS, 48000 Hz, 6ch, 768 kbps - Одноголосый закадровый, А. Гаврилов
Аудио #6: Русский: Dolby AC3, 48000 Hz, 6ch, 448 kbps - Одноголосый закадровый, диктор CDV
Аудио #7: Русский: Dolby AC3, 48000 Hz, 6ch, 448 kbps - Одноголосый закадровый, Ю. Живов
Аудио #8: Английский: DTS, 48000 Hz, 6ch, 768 kbps
Формат субтитров: Softsub (SRT)

Сэмпл
MediaInfo:
General
Unique ID : 215544246779008860110411943928388875671 (0xA2284FDA117D82E3BF7716484D777597)
Complete name : F:\Torrent 2\1995.Bad.Boys.renta23.mkv
Format : Matroska
Format version : Version 4 / Version 2
File size : 14.3 GiB
Duration : 1h 58mn
Overall bit rate : 17.2 Mbps
Movie name : 1995 Плохие парни / renta23
Encoded date : UTC 2015-11-26 22:37:33
Writing application : mkvmerge v8.3.0 ('Over the Horizon') 64bit
Writing library : libebml v1.3.1 + libmatroska v1.4.2
DURATION : 01:55:16.200000000
NUMBER_OF_FRAMES : 1806
NUMBER_OF_BYTES : 70444
_STATISTICS_WRITING_APP : mkvmerge v8.3.0 ('Over the Horizon') 64bit
_STATISTICS_WRITING_DATE_UTC : 2015-11-26 22:37:33
_STATISTICS_TAGS : BPS DURATION NUMBER_OF_FRAMES NUMBER_OF_BYTES
Video
ID : 1
Format : AVC
Format/Info : Advanced Video Codec
Format profile : High@L4.1
Format settings, CABAC : Yes
Format settings, ReFrames : 5 frames
Codec ID : V_MPEG4/ISO/AVC
Duration : 1h 58mn
Bit rate : 12.0 Mbps
Width : 1 920 pixels
Height : 1 032 pixels
Display aspect ratio : 1.85:1
Frame rate mode : Constant
Frame rate : 23.976 fps
Color space : YUV
Chroma subsampling : 4:2:0
Bit depth : 8 bits
Scan type : Progressive
Bits/(Pixel*Frame) : 0.253
Stream size : 9.68 GiB (68%)
Title : 1995 Плохие парни
Writing library : x264 core 146 r2538 121396c
Encoding settings : cabac=1 / ref=5 / deblock=1:-1:-1 / analyse=0x3:0x133 / me=umh / subme=11 / psy=1 / psy_rd=1.11:0.23 / mixed_ref=1 / me_range=32 / chroma_me=1 / trellis=2 / 8x8dct=1 / cqm=0 / deadzone=21,11 / fast_pskip=0 / chroma_qp_offset=-3 / threads=12 / lookahead_threads=3 / sliced_threads=0 / nr=0 / decimate=1 / interlaced=0 / bluray_compat=0 / constrained_intra=0 / bframes=12 / b_pyramid=2 / b_adapt=2 / b_bias=0 / direct=3 / weightb=1 / open_gop=0 / weightp=2 / keyint=250 / keyint_min=23 / scenecut=40 / intra_refresh=0 / rc_lookahead=50 / rc=2pass / mbtree=1 / bitrate=12000 / ratetol=1.0 / qcomp=0.60 / qpmin=0 / qpmax=69 / qpstep=4 / cplxblur=20.0 / qblur=0.5 / ip_ratio=1.40 / aq=1:1.00
Language : English
Default : Yes
Forced : No
Audio #1
ID : 2
Format : DTS
Format/Info : Digital Theater Systems
Mode : 16
Format settings, Endianness : Big
Codec ID : A_DTS
Duration : 1h 58mn
Bit rate mode : Constant
Bit rate : 768 Kbps
Channel(s) : 6 channels
Channel positions : Front: L C R, Side: L R, LFE
Sampling rate : 48.0 KHz
Bit depth : 16 bits
Compression mode : Lossy
Stream size : 653 MiB (4%)
Title : Дубляж
Language : Russian
Default : Yes
Forced : No
Audio #2
ID : 3
Format : AC-3
Format/Info : Audio Coding 3
Mode extension : CM (complete main)
Format settings, Endianness : Big
Codec ID : A_AC3
Duration : 1h 58mn
Bit rate mode : Constant
Bit rate : 448 Kbps
Channel(s) : 6 channels
Channel positions : Front: L C R, Side: L R, LFE
Sampling rate : 48.0 KHz
Compression mode : Lossy
Stream size : 381 MiB (3%)
Title : Многоголосый закадровый
Language : Russian
Default : No
Forced : No
Audio #3
ID : 4
Format : DTS
Format/Info : Digital Theater Systems
Mode : 16
Format settings, Endianness : Big
Codec ID : A_DTS
Duration : 1h 58mn
Bit rate mode : Constant
Bit rate : 768 Kbps
Channel(s) : 6 channels
Channel positions : Front: L C R, Side: L R, LFE
Sampling rate : 48.0 KHz
Bit depth : 16 bits
Compression mode : Lossy
Stream size : 653 MiB (4%)
Title : Одноголосый закадровый, В. Завгородний
Language : Russian
Default : No
Forced : No
Audio #4
ID : 5
Format : DTS
Format/Info : Digital Theater Systems
Mode : 16
Format settings, Endianness : Big
Codec ID : A_DTS
Duration : 1h 58mn
Bit rate mode : Constant
Bit rate : 768 Kbps
Channel(s) : 6 channels
Channel positions : Front: L C R, Side: L R, LFE
Sampling rate : 48.0 KHz
Bit depth : 16 bits
Compression mode : Lossy
Stream size : 653 MiB (4%)
Title : Одноголосый закадровый, М. Яроцкий
Language : Russian
Default : No
Forced : No
Audio #5
ID : 6
Format : DTS
Format/Info : Digital Theater Systems
Mode : 16
Format settings, Endianness : Big
Codec ID : A_DTS
Duration : 1h 58mn
Bit rate mode : Constant
Bit rate : 768 Kbps
Channel(s) : 6 channels
Channel positions : Front: L C R, Side: L R, LFE
Sampling rate : 48.0 KHz
Bit depth : 16 bits
Compression mode : Lossy
Stream size : 653 MiB (4%)
Title : Одноголосый закадровый, А. Гаврилов
Language : Russian
Default : No
Forced : No
Audio #6
ID : 7
Format : AC-3
Format/Info : Audio Coding 3
Mode extension : CM (complete main)
Format settings, Endianness : Big
Codec ID : A_AC3
Duration : 1h 58mn
Bit rate mode : Constant
Bit rate : 448 Kbps
Channel(s) : 6 channels
Channel positions : Front: L C R, Side: L R, LFE
Sampling rate : 48.0 KHz
Compression mode : Lossy
Stream size : 381 MiB (3%)
Title : Одноголосый закадровый, диктор CDV
Language : Russian
Default : No
Forced : No
Audio #7
ID : 8
Format : AC-3
Format/Info : Audio Coding 3
Mode extension : CM (complete main)
Format settings, Endianness : Big
Codec ID : A_AC3
Duration : 1h 58mn
Bit rate mode : Constant
Bit rate : 448 Kbps
Channel(s) : 6 channels
Channel positions : Front: L C R, Side: L R, LFE
Sampling rate : 48.0 KHz
Compression mode : Lossy
Stream size : 381 MiB (3%)
Title : Одноголосый закадровый, Ю. Живов
Language : Russian
Default : No
Forced : No
Audio #8
ID : 9
Format : DTS
Format/Info : Digital Theater Systems
Mode : 16
Format settings, Endianness : Big
Codec ID : A_DTS
Duration : 1h 58mn
Bit rate mode : Constant
Bit rate : 768 Kbps
Channel(s) : 6 channels
Channel positions : Front: L C R, Side: L R, LFE
Sampling rate : 48.0 KHz
Bit depth : 16 bits
Compression mode : Lossy
Stream size : 653 MiB (4%)
Language : English
Default : No
Forced : No
Text #1
ID : 10
Format : UTF-8
Codec ID : S_TEXT/UTF8
Codec ID/Info : UTF-8 Plain Text
Language : Russian
Default : No
Forced : No
Text #2
ID : 11
Format : UTF-8
Codec ID : S_TEXT/UTF8
Codec ID/Info : UTF-8 Plain Text
Language : Russian
Default : No
Forced : No
Text #3
ID : 12
Format : UTF-8
Codec ID : S_TEXT/UTF8
Codec ID/Info : UTF-8 Plain Text
Language : Russian
Default : No
Forced : No
Text #4
ID : 13
Format : UTF-8
Codec ID : S_TEXT/UTF8
Codec ID/Info : UTF-8 Plain Text
Language : English
Default : No
Forced : No
Text #5
ID : 14
Format : UTF-8
Codec ID : S_TEXT/UTF8
Codec ID/Info : UTF-8 Plain Text
Language : English
Default : No
Forced : No
Menu
00:00:00.000 : en:Start
00:06:37.105 : en:Heroin Robbery
00:15:29.303 : en:Peeking & Entering
00:20:50.875 : en:Rich Cop, Poor Cop
00:29:11.416 : en:Eddie's Surprise Party
00:35:19.993 : en:Julie's Escape
00:42:19.787 : en:Two Conversations
00:50:59.056 : en:At Lois'
00:59:15.719 : en:Julie Asks for Mike
01:04:30.867 : en:In Julie's Apartment
01:13:50.801 : en:Making Their Getaway
01:19:42.486 : en:Mike's Place
01:27:59.524 : en:Real Bad Headache
01:33:25.725 : en:Problems in the Lab
01:41:20.616 : en:Julie Meets "Marcus"
01:48:48.689 : en:In the Men's Room
Скриншоты: Внимание! Присутствует ненормативная лексика.
Скачать

Скачать торрент!

Как скачивать? · Что такое торрент? · Рейтинг и ограничения

Сайт не распространяет и не хранит электронные версии произведений, а лишь предоставляет доступ к создаваемому пользователями каталогу ссылок на торрент-файлы, которые содержат только списки хеш-сумм

[Профиль] [ЛС]
Показать сообщения:    
Ответить на тему

Текущее время: Сегодня 18:19

Часовой пояс: GMT + 4



Вы не можете начинать темы
Вы не можете отвечать на сообщения
Вы не можете редактировать свои сообщения
Вы не можете удалять свои сообщения
Вы не можете голосовать в опросах
Вы не можете прикреплять файлы к сообщениям
Вы не можете скачивать файлы