Опасная встреча / Rendez-vous (Антуанетта Бемер / Antoinette Beumer) [2015, Нидерланды, драма, криминал, DVDRip] + Sub Rus + Original Dut

Ответить на тему
 
Автор Сообщение

user ®

Стаж: 7 лет 7 месяцев

Сообщений: 20008

Пост Пост: #1 от 03-Дек-2015 12:54

[Цитировать]

Опасная встреча / Rendez-vous
Страна: Нидерланды
Жанр: драма, криминал
Год выпуска: 2015
Продолжительность: 01:35:56
Перевод: Субтитры (М.Васильев)
Cубтитры: русские
Оригинальная аудиодорожка: нидерландский (говорят еще на английском и французском языках)
Режиссер: Антуанетта Бемер / Antoinette Beumer
В ролях: Лоис Хаверкорт, Марк ван Ойвен, Пьер Буланже, Петер Мюллер, Эви ван дер Лакен
Описание: Симона и Эрик унаследовали старинное поместье во Франции. Они решают, что это прекрасная возможность начать новую жизнь и вдохнуть свежее дыхание в свои отношения.
Эрик сразу загорается идеей устроить в поместье отель, а Симона скучает и вскоре оказывается в постели соседа – красивого, молодого человека. И пока муж строит отель и грандиозные планы, жена с соседом занимаются сексом…
Но рано или поздно все заканчивается, и все тайное становится явным…
Доп. информация: красивое европейское кино.
Экранизация повести очень модной голландской писательницы Эстер Верхуф (Esther Verhoef), исследующей в своем творчестве разные аспекты взаимоотношений мужчин и женщин.
Сэмпл
IMDB
КИНОПОИСК

Качество видео: DVDRip
Формат видео: AVI
Видео: 1458 Kbps, 720x304 (2.35:1) 25 000 fps, XviD
Аудио: 448 Kbps, 48.0 KHz, 16 bits, 6 ch, AC 3
Формат субтитров: softsub (SRT)
MediaInfo
General
Complete name : C:\Users\Владелец\Downloads\Rendez-vous\Rendez-vous.avi
Format : AVI
Format/Info : Audio Video Interleave
File size : 1.28 GiB
Duration : 1h 35mn
Overall bit rate : 1 917 Kbps
Video
ID : 0
Format : MPEG-4 Visual
Format profile : Simple@L3
Format settings, BVOP : No
Format settings, QPel : No
Format settings, GMC : No warppoints
Format settings, Matrix : Default (H.263)
Codec ID : XVID
Codec ID/Hint : XviD
Duration : 1h 35mn
Bit rate : 1 458 Kbps
Width : 720 pixels
Height : 304 pixels
Display aspect ratio : 2.35:1
Frame rate : 25.000 fps
Color space : YUV
Chroma subsampling : 4:2:0
Bit depth : 8 bits
Scan type : Progressive
Compression mode : Lossy
Bits/(Pixel*Frame) : 0.266
Stream size : 1 001 MiB (76%)
Writing library : XviD 1.1.2 (UTC 2006-11-01)
Audio
ID : 1
Format : AC-3
Format/Info : Audio Coding 3
Mode extension : CM (complete main)
Format settings, Endianness : Big
Codec ID : 2000
Duration : 1h 35mn
Source duration : 1h 35mn
Bit rate mode : Constant
Bit rate : 448 Kbps
Channel(s) : 6 channels
Channel positions : Front: L C R, Side: L R, LFE
Sampling rate : 48.0 KHz
Bit depth : 16 bits
Compression mode : Lossy
Stream size : 307 MiB (23%)
Alignment : Aligned on interleaves
Interleave, duration : 32 ms (0.80 video frame)
Interleave, preload duration : 544 ms
Скриншот c названием фильма Скриншоты Титры
2
00:01:43,040 --> 00:01:44,871
Давай, скажи:
3
00:01:45,040 --> 00:01:47,838
- Меня зовут Сюзанна.
- Же мапелль Сюзанна.
4
00:01:48,000 --> 00:01:50,070
Сюзанн!
5
00:01:50,360 --> 00:01:51,793
Отлично.
6
00:01:51,960 --> 00:01:55,748
Мы переезжаем во Францию.
Надо хоть чуть выучить язык.
7
00:01:56,320 --> 00:01:58,436
А долго нам еще?
8
00:01:59,920 --> 00:02:02,150
- Долго?
- Час.
9
00:02:02,320 --> 00:02:03,992
Час.
10
00:02:12,680 --> 00:02:14,398
Приехали.
11
00:02:16,760 --> 00:02:18,637
Какой сад...
12
00:02:19,080 --> 00:02:22,709
Здесь можно трамплин поставить...
13
00:02:22,880 --> 00:02:25,678
Здесь футбольное
поле поместится.
14
00:02:25,840 --> 00:02:27,831
И бассейн.
15
00:02:28,000 --> 00:02:30,673
Можно сделать пруд
с рыбками.
16
00:02:30,840 --> 00:02:32,592
Точно.
17
00:03:53,080 --> 00:03:57,517
- Мы купили помойку.
- Похоже.
18
00:03:59,160 --> 00:04:01,469
Но я доволен.
19
00:04:04,400 --> 00:04:05,833
Боже...
20
00:04:06,000 --> 00:04:09,072
Мы справимся,
вот увидишь.
21
00:04:10,840 --> 00:04:13,991
Дети, разгружаем машину!
22
00:05:05,920 --> 00:05:07,717
Эрик!
23
00:05:07,880 --> 00:05:09,916
Воды нет!
24
00:05:13,080 --> 00:05:16,550
Эрик!
Нет воды!
25
00:05:16,720 --> 00:05:17,994
Да чтоб...
26
00:05:31,200 --> 00:05:32,997
Ждите!
27
00:05:36,920 --> 00:05:38,433
Ваш список.
Скачать

Скачать торрент!

Как скачивать? · Что такое торрент? · Рейтинг и ограничения

Сайт не распространяет и не хранит электронные версии произведений, а лишь предоставляет доступ к создаваемому пользователями каталогу ссылок на торрент-файлы, которые содержат только списки хеш-сумм

[Профиль] [ЛС]
Показать сообщения:    
Ответить на тему

Текущее время: Сегодня 07:07

Часовой пояс: GMT + 4



Вы не можете начинать темы
Вы не можете отвечать на сообщения
Вы не можете редактировать свои сообщения
Вы не можете удалять свои сообщения
Вы не можете голосовать в опросах
Вы не можете прикреплять файлы к сообщениям
Вы не можете скачивать файлы