Нулевая терпимость / Zero Tolerance (Вич Каосаянанда / Wych Kaosayananda) [2015, Таиланд, боевик, триллер, криминал, WEB-DLRip] DVO

Ответить на тему
 
Автор Сообщение

user ®

Стаж: 7 лет 7 месяцев

Сообщений: 20008

Пост Пост: #1 от 03-Дек-2015 12:54

[Цитировать]

Нулевая терпимость / Zero Tolerance Страна: Тайланд
Год выпуска: 2015
Жанр: боевик, триллер, криминал
Продолжительность: 01:29:54
Перевод: Любительский (двухголосый закадровый) Parovoz Production
Оригинальная аудиодорожка: нет
Субтитры: нет-Режиссер: Вич Каосаянанда / Wych Kaosayananda-В ролях: Дастин Нгуен, Скотт Эдкинс, Сахайак Бунсанакит, Гэри Дэниелс, Принья Интачай, Кейн Косуги, Амми Шаниша, Стивен Кларк, Натали Лоренс, Юхкох Мацугучи--Описание: Два бывших военизированных сотрудника, Джонни и его полицейский друг детектив Питер, приезжают в Бангкок, чтобы найти убийц красивой дочери Джонни Анджел…
--Сэмпл: http://sendfile.su/1179098
Качество видео: WEB-DLRip
Исходник: WEB-DL 720p
Формат видео: AVI
Видео: XviD (1.2.2) 1024kbps 688x384 24.000fps
Аудио: MP3 128kbps 2ch 16bit 48000khz

MediaInfo
MediaInfoLib - v0.7.62
General
Complete name : F:\Мои раздачи 2\Нулевая терпимость (Zero Tolerance). 2015г. WEB-DLRip. - kontarik81.avi
Format : AVI
Format/Info : Audio Video Interleave
File size : 750 MiB
Duration : 1h 29mn
Overall bit rate : 1 166 Kbps
Writing application : VirtualDubMod 1.5.10.3 | www.virtualdub-fr.org || (build 2550/release)
Writing library : VirtualDubMod build 2550/release
Video
ID : 0
Format : MPEG-4 Visual
Format profile : Advanced Simple@L5
Format settings, BVOP : 1
Format settings, QPel : No
Format settings, GMC : No warppoints
Format settings, Matrix : Default (H.263)
Codec ID : XVID
Codec ID/Hint : XviD
Duration : 1h 29mn
Bit rate : 1 029 Kbps
Width : 688 pixels
Height : 384 pixels
Display aspect ratio : 16:9
Frame rate : 24.000 fps
Color space : YUV
Chroma subsampling : 4:2:0
Bit depth : 8 bits
Scan type : Progressive
Compression mode : Lossy
Bits/(Pixel*Frame) : 0.162
Stream size : 662 MiB (88%)
Writing library : XviD 1.2.1 (UTC 2008-12-04)
Audio
ID : 1
Format : MPEG Audio
Format version : Version 1
Format profile : Layer 3
Mode : Joint stereo
Mode extension : MS Stereo
Codec ID : 55
Codec ID/Hint : MP3
Duration : 1h 29mn
Bit rate mode : Constant
Bit rate : 128 Kbps
Channel(s) : 2 channels
Sampling rate : 48.0 KHz
Compression mode : Lossy
Stream size : 82.3 MiB (11%)
Alignment : Aligned on interleaves
Interleave, duration : 42 ms (1.00 video frame)
Interleave, preload duration : 504 ms
Writing library : LAME3.99r
Encoding settings : -m j -V 4 -q 2 -lowpass 17 -b 128
Скриншот c названием фильма Скриншоты
Скачать

Скачать торрент!

Как скачивать? · Что такое торрент? · Рейтинг и ограничения

Сайт не распространяет и не хранит электронные версии произведений, а лишь предоставляет доступ к создаваемому пользователями каталогу ссылок на торрент-файлы, которые содержат только списки хеш-сумм

[Профиль] [ЛС]
Показать сообщения:    
Ответить на тему

Текущее время: Сегодня 17:43

Часовой пояс: GMT + 4



Вы не можете начинать темы
Вы не можете отвечать на сообщения
Вы не можете редактировать свои сообщения
Вы не можете удалять свои сообщения
Вы не можете голосовать в опросах
Вы не можете прикреплять файлы к сообщениям
Вы не можете скачивать файлы