Безопасность не гарантируется / Safety Not Guaranteed (Колин Треворроу / Colin Trevorrow) [2012, США, драма, мелодрама, комедия, BDRip 720p] MVO (R5) + Original (Eng) + Sub (Rus, Eng)

Ответить на тему
 
Автор Сообщение

user ®

Стаж: 7 лет 7 месяцев

Сообщений: 20008

Пост Пост: #1 от 03-Дек-2015 03:33

[Цитировать]

Безопасность не гарантируется / Safety Not Guaranteed
«WANTED Someone to go back in time with me. This is not a joke. You'll get paid when we get back. Must bring your own weapons. Safety not guaranteed. I have only done this once before»
- Страна: США
Жанр: драма, мелодрама, комедия
Год выпуска: 2012
Продолжительность: 01:25:47-Перевод: Профессиональный (многоголосый, закадровый) - R5
Оригинальная аудиодорожка: English
Cубтитры: Русские (полные), English (full)
Навигация по главам: присутствует - 16 глав-Режиссер: Колин Треворроу / Colin Trevorrow
В ролях: Обри Пласа, Марк Дюпласс, Джейк Джонсон, Каран Сони, Дженика Бергер, Лорен Карлос, Бейзил Харрис, Мэри Линн Райскаб, Дэвид Шульц, Джефф Гарлин-Описание: Троим журналистам поручают взять интервью у парня, который разместил весьма странное объявление о том, что ищет напарника для путешествий во времени.-
Download sample-Качество видео: BDRip 720p | исх. [url=http://***/forum/viewtopic.php?t=4734898]Blu-ray disc (custom) 1080p[/url] - thx: АДмин
Формат: MKV-Видео: 1 280x544 (2.35:1), 23.976 fps, H.264 ~4845 kbps avg, 0.284 bit/pixel
Аудио №1: 48.0 kHz, AC3 Dolby Digital, 3/2 (L,C,R,l,r) + LFE ch, ~448 kbps | Профессиональный (многоголосый, закадровый) - R5
Аудио №2: 48.0 kHz, AC3 Dolby Digital, 3/2 (L,C,R,l,r) + LFE ch, ~640 kbps | English
Субтитры №1: Русские (полные) | *.srt
Субтитры №2: English (full) | *.srt-

MediaInfo
General
Unique ID : 180156027642583329650477846868983084533 (0x8788C9F0C12043D4958C9198694CF5F5)
Complete name : D:\Фильмы\Рипы\Safety Not Guaranteed.2012.BDRip 720p.eFK tRuAVC.mkv
Format : Matroska
Format version : Version 4 / Version 2
File size : 3.56 GiB
Duration : 1h 25mn
Overall bit rate : 5 944 Kbps
Movie name : Безопасность не гарантируется / Safety Not Guaranteed (2012) - Release for rutracker
Encoded date : UTC 2015-11-21 13:52:42
Writing application : mkvmerge v7.6.0 ('Garden of Dreams') 64bit built on Feb 8 2015 13:04:34
Writing library : libebml v1.3.1 + libmatroska v1.4.2
Attachements : cover.png
DURATION : 01:21:15.537000000
NUMBER_OF_FRAMES : 1102
NUMBER_OF_BYTES : 42334
_STATISTICS_WRITING_APP : mkvmerge v7.6.0 ('Garden of Dreams') 64bit built on Feb 8 2015 13:04:34
_STATISTICS_WRITING_DATE_UT : 2015-11-21 13:52:42
_STATISTICS_TAGS : BPS DURATION NUMBER_OF_FRAMES NUMBER_OF_BYTES
Video
ID : 1
Format : AVC
Format/Info : Advanced Video Codec
Format profile : High@L4.1
Format settings, CABAC : Yes
Format settings, ReFrames : 11 frames
Codec ID : V_MPEG4/ISO/AVC
Duration : 1h 25mn
Bit rate : 4 738 Kbps
Width : 1 280 pixels
Height : 544 pixels
Display aspect ratio : 2.35:1
Frame rate mode : Constant
Frame rate : 23.976 fps
Color space : YUV
Chroma subsampling : 4:2:0
Bit depth : 8 bits
Scan type : Progressive
Bits/(Pixel*Frame) : 0.284
Stream size : 2.84 GiB (80%)
Title : eFK tRuAVC
Writing library : x264 core 148 r2638kMod 7599210
Encoding settings : cabac=1 / ref=11 / deblock=1:-3:-2 / analyse=0x3:0x113 / me=umh / subme=11 / psy=1 / fade_compensate=0.00 / psy_rd=1.00:0.05 / mixed_ref=1 / me_range=48 / chroma_me=1 / trellis=2 / 8x8dct=1 / cqm=0 / deadzone=21,11 / fast_pskip=0 / chroma_qp_offset=-3 / threads=12 / lookahead_threads=3 / sliced_threads=0 / nr=0 / decimate=1 / interlaced=0 / bluray_compat=0 / constrained_intra=0 / fgo=0 / bframes=16 / b_pyramid=2 / b_adapt=2 / b_bias=0 / direct=3 / weightb=1 / open_gop=0 / weightp=2 / keyint=250 / keyint_min=23 / scenecut=40 / intra_refresh=0 / rc_lookahead=60 / rc=crf / mbtree=0 / crf=16.2000 / qcomp=0.70 / qpmin=0 / qpmax=69 / qpstep=4 / vbv_maxrate=62500 / vbv_bufsize=78125 / crf_max=0.0 / nal_hrd=none / filler=0 / ip_ratio=1.40 / pb_ratio=1.30 / aq=1:0.75
Language : English
Default : Yes
Forced : No
Color range : Limited
Color primaries : BT.709
Transfer characteristics : BT.709
Matrix coefficients : BT.709
DURATION : 01:25:47.101000000
NUMBER_OF_FRAMES : 123407
NUMBER_OF_BYTES : 3117752894
_STATISTICS_WRITING_APP : mkvmerge v7.6.0 ('Garden of Dreams') 64bit built on Feb 8 2015 13:04:34
_STATISTICS_WRITING_DATE_UT : 2015-11-21 13:52:42
_STATISTICS_TAGS : BPS DURATION NUMBER_OF_FRAMES NUMBER_OF_BYTES
Audio #1
ID : 2
Format : AC-3
Format/Info : Audio Coding 3
Mode extension : CM (complete main)
Format settings, Endianness : Big
Codec ID : A_AC3
Duration : 1h 25mn
Bit rate mode : Constant
Bit rate : 448 Kbps
Channel(s) : 6 channels
Channel positions : Front: L C R, Side: L R, LFE
Sampling rate : 48.0 KHz
Compression mode : Lossy
Stream size : 275 MiB (8%)
Title : Профессиональный (многоголосый, закадровый) - R5
Language : Russian
Default : Yes
Forced : No
Audio #2
ID : 3
Format : AC-3
Format/Info : Audio Coding 3
Mode extension : CM (complete main)
Format settings, Endianness : Big
Codec ID : A_AC3
Duration : 1h 25mn
Bit rate mode : Constant
Bit rate : 640 Kbps
Channel(s) : 6 channels
Channel positions : Front: L C R, Side: L R, LFE
Sampling rate : 48.0 KHz
Compression mode : Lossy
Stream size : 393 MiB (11%)
Language : English
Default : No
Forced : No
Text #1
ID : 4
Format : UTF-8
Codec ID : S_TEXT/UTF8
Codec ID/Info : UTF-8 Plain Text
Title : полные
Language : Russian
Default : No
Forced : No
Text #2
ID : 5
Format : UTF-8
Codec ID : S_TEXT/UTF8
Codec ID/Info : UTF-8 Plain Text
Title : full
Language : English
Default : No
Forced : No
Menu
00:00:00.000 : :Chapter 01
00:05:57.190 : :Chapter 02
00:12:43.679 : :Chapter 03
00:18:08.378 : :Chapter 04
00:23:40.001 : :Chapter 05
00:26:50.191 : :Chapter 06
00:31:09.409 : :Chapter 07
00:34:22.769 : :Chapter 08
00:38:21.549 : :Chapter 09
00:46:51.266 : :Chapter 10
00:51:50.023 : :Chapter 11
00:57:20.395 : :Chapter 12
01:05:30.676 : :Chapter 13
01:09:57.610 : :Chapter 14
01:15:03.332 : :Chapter 15
01:17:46.828 : :Chapter 16
x264 log
x264 [info]: frame I:1032 Avg QP:15.52 size:117902
x264 [info]: frame P:25379 Avg QP:16.84 size: 49358
x264 [info]: frame B:96996 Avg QP:19.29 size: 17974
x264 [info]: consecutive B-frames: 1.8% 2.3% 6.3% 19.1% 10.1% 50.3% 3.2% 2.6% 1.5% 0.1% 0.1% 2.4% 0.0% 0.0% 0.0% 0.0% 0.0%
x264 [info]: mb I I16..4: 7.8% 74.1% 18.2%
x264 [info]: mb P I16..4: 0.8% 16.1% 1.6% P16..4: 26.7% 34.1% 15.5% 0.0% 0.0% skip: 5.2%
x264 [info]: mb B I16..4: 0.1% 1.8% 0.1% B16..8: 31.6% 23.8% 5.3% direct: 9.0% skip:28.3% L0:41.4% L1:42.0% BI:16.6%
x264 [info]: 8x8 transform intra:86.1% inter:56.8%
x264 [info]: direct mvs spatial:100.0% temporal:0.0%
x264 [info]: coded y,uvDC,uvAC intra: 94.2% 94.6% 87.8% inter: 36.3% 33.9% 12.3%
x264 [info]: i16 v,h,dc,p: 28% 10% 9% 53%
x264 [info]: i8 v,h,dc,ddl,ddr,vr,hd,vl,hu: 10% 10% 10% 9% 12% 12% 12% 12% 14%
x264 [info]: i4 v,h,dc,ddl,ddr,vr,hd,vl,hu: 10% 9% 7% 9% 15% 14% 13% 11% 13%
x264 [info]: i8c dc,h,v,p: 51% 19% 15% 14%
x264 [info]: Weighted P-Frames: Y:5.7% UV:4.1%
x264 [info]: ref P L0: 44.4% 9.9% 17.2% 6.9% 5.6% 4.1% 3.7% 2.3% 2.1% 1.7% 1.8% 0.3% 0.0%
x264 [info]: ref B L0: 79.1% 9.0% 4.0% 2.2% 1.6% 1.4% 1.2% 0.8% 0.5% 0.2%
x264 [info]: ref B L1: 95.2% 4.8%
x264 [info]: kb/s:4845.84
x264 [total]: encoded 123407 frames, 6.47 fps, 4845.84 kb/s, duration 5:18:06.75
Screenshots Comparison
Скачать

Скачать торрент!

Как скачивать? · Что такое торрент? · Рейтинг и ограничения

Сайт не распространяет и не хранит электронные версии произведений, а лишь предоставляет доступ к создаваемому пользователями каталогу ссылок на торрент-файлы, которые содержат только списки хеш-сумм

[Профиль] [ЛС]
Показать сообщения:    
Ответить на тему

Текущее время: Сегодня 15:56

Часовой пояс: GMT + 4



Вы не можете начинать темы
Вы не можете отвечать на сообщения
Вы не можете редактировать свои сообщения
Вы не можете удалять свои сообщения
Вы не можете голосовать в опросах
Вы не можете прикреплять файлы к сообщениям
Вы не можете скачивать файлы