Эмануэль и правда о рыбах / The Truth About Emanuel (Франческа Грегорини / Francesca Gregorini) [2013, США, триллер, драма, BDRip 720p] DVO + Sub Eng + Original Eng

Ответить на тему
 
Автор Сообщение

user ®

Стаж: 7 лет 7 месяцев

Сообщений: 20008

Пост Пост: #1 от 03-Дек-2015 03:33

[Цитировать]

Эмануэль и правда о рыбах / The Truth About Emanuel
Страна: США
Жанр: триллер, драма
Год выпуска: 2013
Продолжительность: 01:35:43
Перевод: Профессиональный (двухголосый закадровый)
Cубтитры: английские
Оригинальная аудиодорожка: английский
Режиссер: Франческа Грегорини / Francesca Gregorini
В ролях: Кая Скоделарио, Джессика Бил, Альфред Молина, Фрэнсис О’Коннор, Анайрин Барнард, Джимми Симпсон, Габриэлла Диас,, Спенсер Гаррет, Сэм Джагер, Кевин МакКоркл, Сиена Перес, Уильям Филип, Энн Рэмси, Вульф Росс, Джонатан Шмок, Расселл Стейнберг, Купер Торнтон, Люси Уолш
Описание: Эмануэль — язвительная и в то же время чувствительная девушка-подросток, живущая со своим отцом и мачехой. Приближается её очередной день рождения, однако Эмануэль безразличен этот праздник с тех пор, как её мать, подарив ей жизнь, умерла при родах. В это же время по соседству с ней поселяется загадочная Линда, обладающая поразительным сходством с покойной матерью Эмануэль. Заинтригованная данным фактом, Эмануэль начинает работать няней для новорожденной дочери Линды и постепенно втягивается в хрупкий, вымышленный мир своей соседки, в котором самой Эмануэль отведена роль привратника.
Сэмпл: http://sendfile.su/1176115
Тип релиза: BDRip 720p
Контейнер: MKV
Видео: AVC 1280x544 2.35:1 5061 Kbps 24.000 fps
Аудио: Русский AC-3 2 channels 48.0 KHz 160 Kbps
Аудио 2: Английский DTS (24 bits) 6 channels 48.0 KHz 1509 Kbps
Формат субтитров: softsub (SRT)
MediaInfo
General
Format : Matroska
Format version : Version 4 / Version 2
File size : 4.48 GiB
Duration : 1h 35mn
Overall bit rate : 6 733 Kbps
Movie name : Release Group СПАМ
Encoded date : UTC 2015-11-22 06:13:54
Writing application : mkvmerge v6.0.0 ('Coming Up For Air') built on Jan 20 2013 09:52:00
Writing library : libebml v1.3.0 libmatroska v1.4.0
Video
ID : 1
Format : AVC
Format/Info : Advanced Video Codec
Format profile : High@L4.1
Format settings, CABAC : Yes
Format settings, ReFrames : 5 frames
Codec ID : V_MPEG4/ISO/AVC
Duration : 1h 35mn
Bit rate : 5 061 Kbps
Width : 1 280 pixels
Height : 544 pixels
Display aspect ratio : 2.35:1
Frame rate mode : Constant
Frame rate : 24.000 fps
Color space : YUV
Chroma subsampling : 4:2:0
Bit depth : 8 bits
Scan type : Progressive
Bits/(Pixel*Frame) : 0.303
Stream size : 3.28 GiB (73%)
Title : The Truth About Emanuelle
Writing library : x264 core 140 r2377 1ca7bb9
Encoding settings : cabac=1 / ref=5 / deblock=1:0:0 / analyse=0x3:0x133 / me=umh / subme=7 / psy=1 / psy_rd=1.00:0.00 / mixed_ref=1 / me_range=16 / chroma_me=1 / trellis=1 / 8x8dct=1 / cqm=0 / deadzone=21,11 / fast_pskip=0 / chroma_qp_offset=-2 / threads=12 / lookahead_threads=2 / sliced_threads=0 / nr=0 / decimate=1 / interlaced=0 / bluray_compat=0 / constrained_intra=0 / bframes=3 / b_pyramid=2 / b_adapt=2 / b_bias=0 / direct=3 / weightb=1 / open_gop=0 / weightp=2 / keyint=250 / keyint_min=24 / scenecut=40 / intra_refresh=0 / rc_lookahead=50 / rc=2pass / mbtree=1 / bitrate=5061 / ratetol=1.0 / qcomp=0.60 / qpmin=0 / qpmax=69 / qpstep=4 / cplxblur=20.0 / qblur=0.5 / ip_ratio=1.40 / aq=1:1.00
Language : English
Default : Yes
Forced : No
Audio #1
ID : 2
Format : AC-3
Format/Info : Audio Coding 3
Mode extension : CM (complete main)
Format settings, Endianness : Big
Codec ID : A_AC3
Duration : 1h 35mn
Bit rate mode : Constant
Bit rate : 160 Kbps
Channel(s) : 2 channels
Channel positions : Front: L R
Sampling rate : 48.0 KHz
Bit depth : 16 bits
Compression mode : Lossy
Stream size : 109 MiB (2%)
Language : Russian
Default : Yes
Forced : No
Audio #2
ID : 3
Format : DTS
Format/Info : Digital Theater Systems
Mode : 16
Format settings, Endianness : Big
Codec ID : A_DTS
Duration : 1h 35mn
Bit rate mode : Constant
Bit rate : 1 509 Kbps
Channel(s) : 6 channels
Channel positions : Front: L C R, Side: L R, LFE
Sampling rate : 48.0 KHz
Bit depth : 24 bits
Compression mode : Lossy
Stream size : 1.00 GiB (22%)
Language : English
Default : No
Forced : No
Text
ID : 4
Format : UTF-8
Codec ID : S_TEXT/UTF8
Codec ID/Info : UTF-8 Plain Text
Language : English
Default : No
Forced : No
Menu
00:00:00.000 : en:00:00:00.000
00:08:42.000 : en:00:08:42.000
00:18:13.458 : en:00:18:13.458
00:26:00.083 : en:00:26:00.083
00:35:18.042 : en:00:35:18.042
00:42:30.625 : en:00:42:30.625
00:51:26.542 : en:00:51:26.542
01:02:01.000 : en:01:02:01.000
01:11:48.833 : en:01:11:48.833
01:19:55.042 : en:01:19:55.042
01:28:12.292 : en:01:28:12.292
Скриншоты
Скачать

Скачать торрент!

Как скачивать? · Что такое торрент? · Рейтинг и ограничения

Сайт не распространяет и не хранит электронные версии произведений, а лишь предоставляет доступ к создаваемому пользователями каталогу ссылок на торрент-файлы, которые содержат только списки хеш-сумм

[Профиль] [ЛС]
Показать сообщения:    
Ответить на тему

Текущее время: Сегодня 04:10

Часовой пояс: GMT + 4



Вы не можете начинать темы
Вы не можете отвечать на сообщения
Вы не можете редактировать свои сообщения
Вы не можете удалять свои сообщения
Вы не можете голосовать в опросах
Вы не можете прикреплять файлы к сообщениям
Вы не можете скачивать файлы