Моя жизнь в Айдлвайлде / Idlewild / Speakerboxxx (Брайан Барбер / Bryan Barber) [2006, США, мюзикл, драма, мелодрама, криминал, WEB-DL 720p] MVO (1 канал) + Sub Eng + Original Eng

Ответить на тему
 
Автор Сообщение

user ®

Стаж: 7 лет 7 месяцев

Сообщений: 20008

Пост Пост: #1 от 03-Дек-2015 03:33

[Цитировать]

Моя жизнь в Айдлвайлде / Idlewild / Speakerboxxx
Страна: США
Студия: Atlas Entertainment, Forensic Films, HBO Films
Жанр: мюзикл, драма, мелодрама, криминал
Год выпуска: 2006
Продолжительность: 02:01:00
Перевод: Профессиональный (многоголосый закадровый) 1 канал
Cубтитры: английские
Оригинальная аудиодорожка: английский
Режиссер: Брайан Барбер / Bryan Barber
В ролях: Андре Бенджамин, Биг Бой, Паула Паттон, Терренс Ховард, Фэйзон Лав, Малинда Уильямс, Сисели Тайсон, Мейси Грей, Бен Верин, Пола Джей Паркер
Описание: История вращается вокруг ночного клуба-борделя в Айдлвайлде, причудливо названного «Церковью». Управляющий клуба должен противостоять злобному гангстеру, который контролирует поток спиртного в клуб, в то же время держа подруг вне поля зрения своей справедливо подозрительной жены Зоры.
Кинопоиск
Sample
Тип релиза: WEB-DL 720p
Контейнер: MKV
Видео: MPEG4 AVC Video, H264, 1280x540, 23.976 fps, 3912 kbps
Аудио: Russian (AC3, 2 ch, 192 kbps, 16 bits, 48.0 KHz) - MVO
Аудио 2: English (AC3, 6 ch, 384 kbps, 16 bits, 48.0 KHz) - оригинал
Формат субтитров: softsub (SRT)

MediaInfo
General
Unique ID : 246615518733106127602375900248937558466 (0xB9886BD596ED65F0A6184E166D6F71C2)
Complete name : K:\Idlewild 2006 WEB-DL 720p.mkv
Format : Matroska
Format version : Version 4 / Version 2
File size : 3.87 GiB
Duration : 2h 1mn
Overall bit rate : 4 579 Kbps
Encoded date : UTC 2015-11-25 11:05:10
Writing application : mkvmerge v6.1.0 ('Old Devil') built on Mar 2 2013 14:32:37
Writing library : libebml v1.3.0 + libmatroska v1.4.0
Video
ID : 1
Format : AVC
Format/Info : Advanced Video Codec
Format profile : Main@L3.1
Format settings, CABAC : No
Format settings, ReFrames : 2 frames
Codec ID : V_MPEG4/ISO/AVC
Duration : 2h 1mn
Bit rate : 3 912 Kbps
Width : 1 280 pixels
Height : 540 pixels
Display aspect ratio : 2.40:1
Frame rate mode : Constant
Frame rate : 23.976 fps
Color space : YUV
Chroma subsampling : 4:2:0
Bit depth : 8 bits
Scan type : Progressive
Bits/(Pixel*Frame) : 0.236
Stream size : 3.31 GiB (85%)
Language : English
Default : Yes
Forced : No
Color primaries : BT.709
Transfer characteristics : BT.709
Matrix coefficients : BT.709
Audio #1
ID : 2
Format : AC-3
Format/Info : Audio Coding 3
Mode extension : CM (complete main)
Format settings, Endianness : Big
Codec ID : A_AC3
Duration : 2h 1mn
Bit rate mode : Constant
Bit rate : 192 Kbps
Channel count : 2 channels
Channel positions : Front: L R
Sampling rate : 48.0 KHz
Bit depth : 16 bits
Compression mode : Lossy
Stream size : 166 MiB (4%)
Language : Russian
Default : Yes
Forced : No
Audio #2
ID : 3
Format : AC-3
Format/Info : Audio Coding 3
Mode extension : CM (complete main)
Format settings, Endianness : Big
Codec ID : A_AC3
Duration : 2h 1mn
Bit rate mode : Constant
Bit rate : 384 Kbps
Channel count : 6 channels
Channel positions : Front: L C R, Side: L R, LFE
Sampling rate : 48.0 KHz
Bit depth : 16 bits
Compression mode : Lossy
Stream size : 332 MiB (8%)
Language : English
Default : No
Forced : No
Text
ID : 4
Format : UTF-8
Codec ID : S_TEXT/UTF8
Codec ID/Info : UTF-8 Plain Text
Language : English
Default : No
Forced : No
Menu
00:00:00.000 : en:Role Play (Main Titles)
00:06:58.000 : en:The Greatest Show
00:11:30.000 : en:The Hot Seat
00:20:00.000 : en:Angel Davenport
00:26:13.000 : en:Big Plan
00:35:14.000 : en:“Chronomentrophobiaâ€
00:38:09.000 : en:Mighty Nice Hat
00:42:08.000 : en:Find A Way Or Make One
00:52:02.000 : en:Throw Your Back Out
00:55:33.000 : en:It’s in the Fine Print
00:58:24.000 : en:Real Talent
01:04:09.000 : en:“Movin’ Coolâ€
01:11:42.000 : en:Feelin’ Generous
01:16:19.000 : en:Leaving Idlewild
01:25:02.000 : en:What Goes Around, Comes Around
01:30:18.000 : en:Repentance
01:38:06.000 : en:Bright Lights
01:43:54.000 : en:“Mutron Angelâ€
01:49:49.000 : en:A Great Start
01:54:22.000 : en:End Titles
Скриншоты
Скачать

Скачать торрент!

Как скачивать? · Что такое торрент? · Рейтинг и ограничения

Сайт не распространяет и не хранит электронные версии произведений, а лишь предоставляет доступ к создаваемому пользователями каталогу ссылок на торрент-файлы, которые содержат только списки хеш-сумм

[Профиль] [ЛС]
Показать сообщения:    
Ответить на тему

Текущее время: Сегодня 16:13

Часовой пояс: GMT + 4



Вы не можете начинать темы
Вы не можете отвечать на сообщения
Вы не можете редактировать свои сообщения
Вы не можете удалять свои сообщения
Вы не можете голосовать в опросах
Вы не можете прикреплять файлы к сообщениям
Вы не можете скачивать файлы