Хоббит: Битва пяти воинств / The Hobbit: The Battle of the Five Armies (Питер Джексон / Peter Jackson) [2014, Новая Зеландия, США, фэнтези, приключения, BDRip 1080p] [Расширенная версия / Extended Cut] Dub + Sub Rus, Eng + Original Eng

Ответить на тему
 
Автор Сообщение

user ®

Стаж: 7 лет 7 месяцев

Сообщений: 20008

Пост Пост: #1 от 03-Дек-2015 00:27

[Цитировать]

Хоббит: Битва пяти воинств / The Hobbit: The Battle of the Five Armies / [Расширенная версия / Extended Cut]
Страна: Новая Зеландия, США
Жанр: фэнтези, приключения
Год выпуска: 2014
Продолжительность: 02:44:02-Перевод: Профессиональный (дублированный) Blu-ray CEE
Cубтитры: Russian (Forced, iTunes), Russian (iTunes), Ukrainian (iTunes), English, English (SDH)
Оригинальная аудиодорожка: английский-Режиссер: Питер Джексон / Peter Jackson-В ролях: Мартин Фриман, Иэн МакКеллен, Ричард Армитедж, Люк Эванс, Эванджелин Лилли, Ли Пейс, Орландо Блум, Бенедикт Камбербэтч, Кен Стотт, Эйдан Тернер
Описание: Когда отряд из тринадцати гномов нанимал хоббита Бильбо Бэгинса в качестве взломщика и четырнадцатого, «счастливого», участника похода к Одинокой горе, Бильбо полагал, что его приключения закончатся, когда он выполнит свою задачу - найдет сокровище, которое так необходимо предводителю гномов Торину. Путешествие в Эребор, захваченное драконом Смаугом королевство гномов, оказалось еще более опасным, чем предполагали гномы и даже Гэндальф - мудрый волшебник, протянувший Торину и его отряду руку помощи.
В погоню за гномами устремилась армия орков, ведомых пробудившимся в руинах древним злом, а эльфы и люди, с которыми Бильбо и его товарищам пришлось иметь дело во время путешествия и которые пострадали от последствий желания гномов вернуть свой дом, предъявили права на щедрое вознаграждение - часть сокровищ Одинокой горы. Скоро неподалеку от Одинокой горы встретятся пять армий, и лишь кровопролитная битва определит результаты смелого гномьего похода.-РАЗДАЧА ОТ:
-Тип релиза: BDRip 1080p
Контейнер: MKV-Видео: 1920x800 (2,40:1), 23,976 fps, MPEG-4 AVC, ~ 14525 kbps, 0.385 bit/pixel-Аудио 1: Russian: 48 kHz, AC3, 3/2 (L,C,R,l,r) + LFE ch, ~448.00 kbps avg
Аудио 2: English: 48 kHz, DTS, 3/2 (L,C,R,l,r) + LFE ch, ~1509.00 kbps avg
Аудио 3: English: 48 kHz, AC3, 2/0 (L,R) ch, ~192.00 kbps avg Commentary
Сэмпл MediaInfo
Общее
Уникальный идентификатор : 238041874013348444756293186951330707633 (0xB31532836F5034F186A5570A2BA8B8B1)
Полное имя : D:\Hobbit The Battle\The.Hobbit.The.Battle.of.the.Five.Armies.2014.Extended.1080p.BluRay.Rus.2xEng.HDCLUB.mkv
Формат : Matroska
Версия формата : Version 2
Размер файла : 19,1 Гбайт
Продолжительность : 2 ч. 44 м.
Общий поток : 16,7 Мбит/сек
Название фильма : The Hobbit: The Battle of the Five Armies (2014) [Extended Edition] - Release for HDCLUB
Дата кодирования : UTC 2015-11-22 16:11:49
Программа кодирования : mkvmerge v3.4.0 ('Rapunzel') built on May 15 2010 09:38:20
Библиотека кодирования : libebml v0.8.0 + libmatroska v0.9.0
Видео
Идентификатор : 1
Формат : AVC
Формат/Информация : Advanced Video Codec
Профиль формата : High@L4.1
Параметр CABAC формата : Да
Параметр ReFrames формата : 5 кадров
Идентификатор кодека : V_MPEG4/ISO/AVC
Продолжительность : 2 ч. 44 м.
Битрейт : 14,2 Мбит/сек
Ширина : 1920 пикселей
Высота : 800 пикселей
Соотношение сторон : 2,40:1
Режим частоты кадров : Постоянный
Частота кадров : 23,976 кадра/сек
Цветовое пространство : YUV
Субдискретизация насыщенности : 4:2:0
Битовая глубина : 8 бит
Тип развёртки : Прогрессивная
Бит/(Пиксели*Кадры) : 0.385
Размер потока : 16,3 Гбайт (85%)
Заголовок : The Hobbit: The Battle of the Five Armies (2014) [Extended Edition] - Release for HDCLUB
Библиотека кодирования : x264 core 148 r2597 e86f3a1
Настройки программы : cabac=1 / ref=5 / deblock=1:-3:-3 / analyse=0x3:0x133 / me=umh / subme=10 / psy=1 / psy_rd=1.00:0.00 / mixed_ref=1 / me_range=48 / chroma_me=1 / trellis=2 / 8x8dct=1 / cqm=0 / deadzone=21,11 / fast_pskip=0 / chroma_qp_offset=-2 / threads=12 / lookahead_threads=2 / sliced_threads=0 / nr=0 / decimate=0 / interlaced=0 / bluray_compat=0 / constrained_intra=0 / bframes=8 / b_pyramid=2 / b_adapt=2 / b_bias=0 / direct=3 / weightb=1 / open_gop=0 / weightp=2 / keyint=240 / keyint_min=23 / scenecut=40 / intra_refresh=0 / rc_lookahead=60 / rc=crf / mbtree=0 / crf=14.4 / qcomp=0.65 / qpmin=0 / qpmax=69 / qpstep=4 / vbv_maxrate=62500 / vbv_bufsize=78125 / crf_max=0.0 / nal_hrd=none / filler=0 / ip_ratio=1.30 / pb_ratio=1.20 / aq=1:0.80
Язык : English
Default : Да
Forced : Нет
Аудио #1
Идентификатор : 2
Формат : AC-3
Формат/Информация : Audio Coding 3
Расширение режима : CM (complete main)
Параметр Endianness формата : Big
Идентификатор кодека : A_AC3
Продолжительность : 2 ч. 44 м.
Вид битрейта : Постоянный
Битрейт : 448 Кбит/сек
Каналы : 6 каналов
Расположение каналов : Front: L C R, Side: L R, LFE
Частота : 48,0 КГц
Битовая глубина : 16 бит
Метод сжатия : С потерями
Размер потока : 526 Мбайт (3%)
Заголовок : AC3 5.1 @ 448 kbps - DUB, Blu-ray CEE
Язык : Russian
Default : Да
Forced : Нет
Аудио #2
Идентификатор : 3
Формат : DTS
Формат/Информация : Digital Theater Systems
Режим : 16
Параметр Endianness формата : Big
Идентификатор кодека : A_DTS
Продолжительность : 2 ч. 44 м.
Вид битрейта : Постоянный
Битрейт : 1509 Кбит/сек
Каналы : 6 каналов
Расположение каналов : Front: L C R, Side: L R, LFE
Частота : 48,0 КГц
Битовая глубина : 24 бит
Метод сжатия : С потерями
Размер потока : 1,73 Гбайт (9%)
Заголовок : DTS 5.1 @ 1536 kbps
Язык : English
Default : Нет
Forced : Нет
Аудио #3
Идентификатор : 4
Формат : AC-3
Формат/Информация : Audio Coding 3
Профиль формата : Dolby Digital
Расширение режима : CM (complete main)
Параметр Endianness формата : Big
Идентификатор кодека : A_AC3
Продолжительность : 2 ч. 44 м.
Вид битрейта : Постоянный
Битрейт : 192 Кбит/сек
Каналы : 2 канала
Расположение каналов : Front: L R
Частота : 48,0 КГц
Битовая глубина : 16 бит
Метод сжатия : С потерями
Размер потока : 225 Мбайт (1%)
Заголовок : AC3 2.0 @ 192 kbps - Audio Commentary with Filmmaker Peter Jackson and co-writer Philippa Boyens
Язык : English
Default : Нет
Forced : Нет
Текст #1
Идентификатор : 5
Формат : UTF-8
Идентификатор кодека : S_TEXT/UTF8
Идентификатор кодека/Информация : UTF-8 Plain Text
Заголовок : Forced, iTunes
Язык : Russian
Default : Да
Forced : Нет
Текст #2
Идентификатор : 6
Формат : UTF-8
Идентификатор кодека : S_TEXT/UTF8
Идентификатор кодека/Информация : UTF-8 Plain Text
Заголовок : iTunes
Язык : Russian
Default : Нет
Forced : Нет
Текст #3
Идентификатор : 7
Формат : UTF-8
Идентификатор кодека : S_TEXT/UTF8
Идентификатор кодека/Информация : UTF-8 Plain Text
Заголовок : iTunes
Язык : Ukrainian
Default : Нет
Forced : Нет
Текст #4
Идентификатор : 8
Формат : UTF-8
Идентификатор кодека : S_TEXT/UTF8
Идентификатор кодека/Информация : UTF-8 Plain Text
Язык : English
Default : Нет
Forced : Нет
Текст #5
Идентификатор : 9
Формат : UTF-8
Идентификатор кодека : S_TEXT/UTF8
Идентификатор кодека/Информация : UTF-8 Plain Text
Заголовок : SDH
Язык : English
Default : Нет
Forced : Нет
Меню
00:00:00.000 : en:Fire And Water
00:05:12.395 : en:Bard The Dragon-Slayer**
00:12:47.057 : en:Dungeons Of The Dark Lord
00:13:19.298 : en:Shores Of The Long Lake
00:18:57.427 : en:Not At Home
00:23:42.170 : en:"Others Will Now Look To The Mountain"
00:24:56.161 : en:Legions Of The Defiler
00:26:04.563 : en:The Mark Of Gundabad
00:27:33.026 : en:Attack On Dol Guldur**
00:35:45.685 : en:"Summon Our Friends"**
00:36:41.282 : en:The King's Jewel
00:40:41.897 : en:The Ruins Of Dale
00:42:01.143 : en:Erebor Fortified
00:43:11.755 : en:The Elvenking's Aid**
00:46:16.148 : en:The Gathering Of The Clouds
00:51:27.667 : en:A Token Of Friendship
00:54:57.961 : en:The Shadow Of Gundabad
00:56:14.829 : en:"The Last Move In A Master Plan"
00:58:31.299 : en:Bolg Of The North
01:00:26.956 : en:The Night Watch*
01:02:43.593 : en:A Thief In The Night
01:06:10.174 : en:An Honest Burglar**
01:12:23.297 : en:Dain Ironfoot**
01:17:22.554 : en:The Clouds Burst**
01:20:36.331 : en:The Battle At Dale
01:24:57.217 : en:The Darkest Hour**
01:28:41.774 : en:Dragon-Sickness
01:30:52.280 : en:The Return Of Thorin Oakenshield
01:33:02.159 : en:Sons Of Durin
01:35:12.832 : en:"To The King!"**
01:38:32.489 : en:A Call To Arms**
01:39:42.893 : en:Thorin's Plan**
01:41:00.596 : en:The War Chariot*
01:45:03.505 : en:Courage And Cowardice**
01:47:13.635 : en:The Fifth Army
01:49:05.288 : en:Scouting Ravenhill
01:50:03.013 : en:Blood Of The Eldar
01:52:59.606 : en:An Unforseen Remedy*
01:53:51.282 : en:The Fallen
01:57:15.236 : en:The Battle Of Ravenhill**
02:05:38.572 : en:To The Death**
02:12:07.044 : en:Parting In Friendship
02:15:26.243 : en:The Sorrow Of Elves
02:18:32.512 : en:Eyes That Fire And Sword Have Seen
02:20:07.440 : en:King Under The Mountain*
02:22:27.205 : en:The Return Journey
02:26:11.596 : en:The Last Stage
02:30:54.462 : en:Credits
Скриншоты
Скачать

Скачать торрент!

Как скачивать? · Что такое торрент? · Рейтинг и ограничения

Сайт не распространяет и не хранит электронные версии произведений, а лишь предоставляет доступ к создаваемому пользователями каталогу ссылок на торрент-файлы, которые содержат только списки хеш-сумм

[Профиль] [ЛС]
Показать сообщения:    
Ответить на тему

Текущее время: Сегодня 07:07

Часовой пояс: GMT + 4



Вы не можете начинать темы
Вы не можете отвечать на сообщения
Вы не можете редактировать свои сообщения
Вы не можете удалять свои сообщения
Вы не можете голосовать в опросах
Вы не можете прикреплять файлы к сообщениям
Вы не можете скачивать файлы