Хоббит: Битва пяти воинств / The Hobbit: The Battle of the Five Armies (Питер Джексон / Peter Jackson) [2014, Новая Зеландия, США, фэнтези, приключения, Blu-ray disc 1080p] [3-Disc Расширенная версия / Extended Cut] Dub + Sub Rus, Eng + Original Eng

Ответить на тему
 
Автор Сообщение

user ®

Стаж: 7 лет 7 месяцев

Сообщений: 20008

Пост Пост: #1 от 03-Дек-2015 00:27

[Цитировать]

Хоббит: Битва пяти воинств / The Hobbit: The Battle of the Five Armies / Расширенная версия / Extended Cut
Страна: Новая Зеландия, США
Жанр: фэнтези, приключения
Год выпуска: 2014
Продолжительность: 02:44:02-Перевод: Профессиональный (дублированный)-Cубтитры: Английский, Арабский, Китайский, Хорватский, Чешский, Эстонский, Греческий, Иврит, Венгерский, Корейский, Польский, Португальский, Румынский, Русский, Тайский, Турецкий
Оригинальная аудиодорожка: английский-Режиссер: Питер Джексон / Peter Jackson-В ролях: Мартин Фриман, Иэн МакКеллен, Ричард Армитедж, Люк Эванс, Эванджелин Лилли, Ли Пейс, Орландо Блум, Бенедикт Камбербэтч, Кен Стотт, Эйдан Тернер
Описание: Когда отряд из тринадцати гномов нанимал хоббита Бильбо Бэгинса в качестве взломщика и четырнадцатого, «счастливого», участника похода к Одинокой горе, Бильбо полагал, что его приключения закончатся, когда он выполнит свою задачу - найдет сокровище, которое так необходимо предводителю гномов Торину. Путешествие в Эребор, захваченное драконом Смаугом королевство гномов, оказалось еще более опасным, чем предполагали гномы и даже Гэндальф - мудрый волшебник, протянувший Торину и его отряду руку помощи.
В погоню за гномами устремилась армия орков, ведомых пробудившимся в руинах древним злом, а эльфы и люди, с которыми Бильбо и его товарищам пришлось иметь дело во время путешествия и которые пострадали от последствий желания гномов вернуть свой дом, предъявили права на щедрое вознаграждение - часть сокровищ Одинокой горы. Скоро неподалеку от Одинокой горы встретятся пять армий, и лишь кровопролитная битва определит результаты смелого гномьего похода.-Тип релиза: Blu-ray disc
Контейнер: BDMV-Видео: MPEG-4 AVC Video 21817 kbps 1080p / 23,976 fps / 16:9 / High Profile 4.1-Аудио 1: DTS-HD Master Audio English 4764 kbps 7.1 / 48 kHz / 4764 kbps / 24-bit (DTS Core: 5.1 / 48 kHz / 1509 kbps / 24-bit)
Аудио 2: Dolby Digital Audio Czech 448 kbps 5.1 / 48 kHz / 448 kbps / DN -4dB
Аудио 3: Dolby Digital Audio Hungarian 448 kbps 5.1 / 48 kHz / 448 kbps / DN -4dB
Аудио 4: Dolby Digital Audio Polish 448 kbps 5.1 / 48 kHz / 448 kbps / DN -4dB
Аудио 5: Dolby Digital Audio Russian 448 kbps 5.1 / 48 kHz / 448 kbps / DN -4dB
Аудио 6: Dolby Digital Audio English 192 kbps 2.0 / 48 kHz / 192 kbps / DN -4dB / Dolby Surround
Сэмпл Bonus Disc 1
Cубтитры: Английский, китайский, чешский, голландский, французский, немецкий, венгерский, итальянский, японский, корейский, польский, португальский, русский, испанский, тайский
Битва Пяти Воинств: Хроники Хоббита
* Заставка — 3 минуты
* Крепость Темного Властелина: Дол Гулдур — май 2011 — 29 мин 30 сек
* Огонь и вода: Атака Смауга — август 2011/апрель 2012 — 15 мин
* В тени Горы: Рок-энд-Пиллар-Рэйдж — ноябяь 2011 — 20 мин
* После гибели дракона: Озеро Пукаки — декабрь 2012 — 29 мин 30 сек
* Тучи собираются: Эребор — май-июнь 2012 — 29 мин 30 сек
* Расставание: окончание съемок — июнь-июль 2012 — 27 мин
* Гроза разразилась: Дэйл — июнь 2013 — 18 мин
* Последний рубеж: Воронья высота — июнь 2013 — 26 мин
* Выпад из ворот: досъемки Эребора — июль 2013 — 18 мин
* Последняя глава — 26 июля 2013 — 29 мин 30 сек
BDInfo
Disc Title: HOBBIT_BOTFA_EE_BONUS_11_HDCLUB
Disc Size: 37 253 037 306 bytes
Protection: AACS
BD-Java: Yes
BDInfo: 0.5.8
PLAYLIST REPORT:
Name: 00201.MPLS
Length: 4:52:49.885 (h:m:s.ms)
Size: 34 824 161 280 bytes
Total Bitrate: 15,86 Mbps
(*) Indicates included stream hidden by this playlist.
VIDEO:
Codec Bitrate Description
----- ------- -----------
MPEG-4 AVC Video 13895 kbps 1080p / 23,976 fps / 16:9 / High Profile 4.0
AUDIO:
Codec Language Bitrate Description
----- -------- ------- -----------
Dolby Digital Audio English 192 kbps 2.0 / 48 kHz / 192 kbps / DN -4dB / Dolby Surround
SUBTITLES:
Codec Language Bitrate Description
----- -------- ------- -----------
Presentation Graphics English 59,270 kbps
Presentation Graphics Chinese 48,235 kbps
Presentation Graphics Chinese 48,524 kbps
Presentation Graphics Czech 49,333 kbps
Presentation Graphics Dutch 49,666 kbps
Presentation Graphics French 50,269 kbps
Presentation Graphics German 53,669 kbps
Presentation Graphics Hungarian 49,726 kbps
Presentation Graphics Italian 56,920 kbps
* Presentation Graphics Japanese 45,644 kbps
Presentation Graphics Korean 41,173 kbps
Presentation Graphics Polish 47,640 kbps
Presentation Graphics Portuguese 53,139 kbps
Presentation Graphics Portuguese 56,264 kbps
Presentation Graphics Russian 47,158 kbps
Presentation Graphics Spanish 52,816 kbps
Presentation Graphics Spanish 52,440 kbps
Presentation Graphics Thai 43,584 kbps
FILES:
Name Time In Length Size Total Bitrate
---- ------- ------ ---- -------------
00031.M2TS 0:00:00.000 0:03:46.100 442 798 080 15 667
00037.M2TS 0:03:46.100 0:30:00.715 3 562 033 152 15 825
00004.M2TS 0:33:46.816 0:29:54.834 3 619 209 216 16 132
00027.M2TS 1:03:41.651 0:17:55.115 2 121 228 288 15 784
00029.M2TS 1:21:36.766 0:27:20.847 3 304 550 400 16 111
00028.M2TS 1:48:57.614 0:30:02.842 3 584 040 960 15 904
00032.M2TS 2:19:00.457 0:29:54.751 3 532 965 888 15 748
00030.M2TS 2:48:55.208 0:29:41.779 3 516 352 512 15 788
00033.M2TS 3:18:36.988 0:30:04.260 3 564 392 448 15 804
00034.M2TS 3:48:41.249 0:30:02.675 3 564 263 424 15 818
00038.M2TS 4:18:43.924 0:34:05.960 4 012 326 912 15 689
Bonus Disc 2
Cубтитры: Английский, китайский, чешский, голландский, французский, немецкий, венгерский, итальянский, японский, корейский, польский, португальский, русский, испанский, тайский
Мир Средиземья
Когда прогремел гром: собрание пяти воинств — 25 мин
* Цель Саурона
* Линия фронта
* Изменившаяся ситуация
2. Народы и обитатели Средиземья — 90 мин
* Тауриэль: женщина-эльф
* Трандуил: король лесных эльфов
* Даин Железностоп: гном из Железных Холмов
3. Миры Третьей Эпохи — 90 мин 30 сек
* Дэйл: страна людей
* Дол Гулдур: Чародейский холм
* Эребор: Одинокая Гора
4. Прощайте, друзья — 15 мин
5. Воспоминания об Эндрю Лесни — 4 мин 39 сек
6. Бесценные кадры — 20 мин
* Марафон в 2011 г.
* Видеоклип: Rivers of Gold
* Адам Браун
7. Титры
BDInfo
Disc Title: HOBBIT_BOTFA_EE_BONUS_12_HDCLUB
Disc Size: 41 843 355 658 bytes
Protection: AACS
BD-Java: Yes
BDInfo: 0.5.8
PLAYLIST REPORT:
Name: 00201.MPLS
Length: 5:00:14.871 (h:m:s.ms)
Size: 35 865 016 320 bytes
Total Bitrate: 15,93 Mbps
(*) Indicates included stream hidden by this playlist.
VIDEO:
Codec Bitrate Description
----- ------- -----------
MPEG-4 AVC Video 13876 kbps 1080p / 23,976 fps / 16:9 / High Profile 4.0
AUDIO:
Codec Language Bitrate Description
----- -------- ------- -----------
Dolby Digital Audio English 192 kbps 2.0 / 48 kHz / 192 kbps / DN -4dB / Dolby Surround
SUBTITLES:
Codec Language Bitrate Description
----- -------- ------- -----------
Presentation Graphics English 59,470 kbps
Presentation Graphics Chinese 49,532 kbps
Presentation Graphics Chinese 51,648 kbps
Presentation Graphics Czech 50,792 kbps
Presentation Graphics Dutch 54,316 kbps
Presentation Graphics French 51,076 kbps
Presentation Graphics German 56,142 kbps
Presentation Graphics Hungarian 52,777 kbps
Presentation Graphics Italian 58,474 kbps
* Presentation Graphics Japanese 50,035 kbps
Presentation Graphics Korean 41,246 kbps
Presentation Graphics Polish 50,262 kbps
Presentation Graphics Portuguese 55,268 kbps
Presentation Graphics Portuguese 57,615 kbps
Presentation Graphics Russian 52,182 kbps
Presentation Graphics Spanish 54,667 kbps
Presentation Graphics Spanish 56,392 kbps
Presentation Graphics Thai 47,428 kbps
FILES:
Name Time In Length Size Total Bitrate
---- ------- ------ ---- -------------
00004.M2TS 0:00:00.000 0:30:00.423 3 617 605 632 16 074
00028.M2TS 0:30:00.423 0:29:55.293 3 601 004 544 16 046
00030.M2TS 0:59:55.717 0:29:36.566 3 564 337 152 16 050
00035.M2TS 1:29:32.283 0:27:32.233 3 334 250 496 16 144
00037.M2TS 1:57:04.517 0:30:04.928 3 583 733 760 15 884
00039.M2TS 2:27:09.445 0:30:03.510 3 579 697 152 15 879
00053.M2TS 2:57:12.955 0:30:00.590 3 560 349 696 15 819
00043.M2TS 3:27:13.546 0:30:01.466 3 570 216 960 15 855
00045.M2TS 3:57:15.012 0:30:03.468 3 570 862 080 15 840
00048.M2TS 4:27:18.480 0:32:56.391 3 882 958 848 15 717
Дополнительно
Цитата:
* Релиз HDCLUB
* CEE - Central Eastern Europe original release!
* На диске:
Новая Зеландия: Родина Средиземья, Часть 3
Тарии Кинорежиссёра
Ролик
BDInfo
DISC INFO:
Disc Title: HOBBIT_BOTFA_EE_HDCLUB
Disc Size: 40 279 802 902 bytes
Protection: AACS
BD-Java: Yes
BDInfo: 0.5.8
PLAYLIST REPORT:
Name: 00100.MPLS
Length: 2:44:02.541 (h:m:s.ms)
Size: 37 617 088 512 bytes
Total Bitrate: 30,58 Mbps
VIDEO:
Codec Bitrate Description
----- ------- -----------
MPEG-4 AVC Video 21817 kbps 1080p / 23,976 fps / 16:9 / High Profile 4.1
AUDIO:
Codec Language Bitrate Description
----- -------- ------- -----------
DTS-HD Master Audio English 4764 kbps 7.1 / 48 kHz / 4764 kbps / 24-bit (DTS Core: 5.1 / 48 kHz / 1509 kbps / 24-bit)
Dolby Digital Audio Czech 448 kbps 5.1 / 48 kHz / 448 kbps / DN -4dB
Dolby Digital Audio Hungarian 448 kbps 5.1 / 48 kHz / 448 kbps / DN -4dB
Dolby Digital Audio Polish 448 kbps 5.1 / 48 kHz / 448 kbps / DN -4dB
Dolby Digital Audio Russian 448 kbps 5.1 / 48 kHz / 448 kbps / DN -4dB
Dolby Digital Audio English 192 kbps 2.0 / 48 kHz / 192 kbps / DN -4dB / Dolby Surround
SUBTITLES:
Codec Language Bitrate Description
----- -------- ------- -----------
Presentation Graphics English 18,017 kbps
Presentation Graphics Arabic 8,446 kbps
Presentation Graphics Chinese 15,212 kbps
Presentation Graphics Chinese 14,617 kbps
Presentation Graphics Chinese 54,596 kbps
Presentation Graphics Croatian 15,564 kbps
Presentation Graphics Czech 13,810 kbps
Presentation Graphics Czech 0,926 kbps
Presentation Graphics Estonian 13,881 kbps
Presentation Graphics Greek 16,269 kbps
Presentation Graphics Hebrew 11,689 kbps
Presentation Graphics Hungarian 16,348 kbps
Presentation Graphics Hungarian 1,131 kbps
Presentation Graphics Korean 11,995 kbps
Presentation Graphics Polish 14,138 kbps
Presentation Graphics Polish 1,006 kbps
Presentation Graphics Portuguese 16,856 kbps
Presentation Graphics Romanian 15,487 kbps
Presentation Graphics Russian 13,354 kbps
Presentation Graphics Russian 1,015 kbps
Presentation Graphics Thai 14,895 kbps
Presentation Graphics Turkish 15,817 kbps
FILES:
Name Time In Length Size Total Bitrate
---- ------- ------ ---- -------------
00030.M2TS 0:00:00.000 2:44:02.541 37 617 088 512 30 575
Скриншоты
Скачать

Скачать торрент!

Как скачивать? · Что такое торрент? · Рейтинг и ограничения

Сайт не распространяет и не хранит электронные версии произведений, а лишь предоставляет доступ к создаваемому пользователями каталогу ссылок на торрент-файлы, которые содержат только списки хеш-сумм

[Профиль] [ЛС]
Показать сообщения:    
Ответить на тему

Текущее время: Сегодня 03:06

Часовой пояс: GMT + 4



Вы не можете начинать темы
Вы не можете отвечать на сообщения
Вы не можете редактировать свои сообщения
Вы не можете удалять свои сообщения
Вы не можете голосовать в опросах
Вы не можете прикреплять файлы к сообщениям
Вы не можете скачивать файлы