О Шмидте / About Schmidt (Александр Пэйн / Alexander Payne) [2002, США, драма, комедия, BDRip 720p] 2x MVO + Original (Eng) + Sub (Rus, Eng)

Ответить на тему
 
Автор Сообщение

user ®

Стаж: 7 лет 7 месяцев

Сообщений: 20008

Пост Пост: #1 от 03-Дек-2015 00:27

[Цитировать]

О Шмидте / About Schmidt
«Schmidt Happens»
- Страна: США
Жанр: драма, комедия
Год выпуска: 2002
Продолжительность: 02:05:25-Перевод №1: Профессиональный (многоголосый, закадровый) - R5
Перевод №2: Профессиональный (многоголосый, закадровый)
Оригинальная аудиодорожка: English
Cубтитры: Русские (полные), English (full + full SDH)
Навигация по главам: присутствует - 13 глав-Режиссер: Александр Пэйн / Alexander Payne
В ролях: Джек Николсон, Кэти Бейтс, Хоуп Дэвис, Дермот Малруни, Джун Скуиб, Ховард Хессеман, Гарри Гронер, Конни Рэй, Лен Кариу, Марк Венхуизен-Описание: История Уоррена Шмидта, работающего в страховой компании. После ухода на покой, он начинает переосмысливать прожитую жизнь, пытаясь понять, смог ли он достичь всех своих мечтаний в карьере, браке и семейной жизни.
Дочь Уоррена почти не общается с ним, живет в Денвере и собирается выйти замуж за человека, которого он не одобряет. Что же делать? Шмидт отправляется в поездку через всю страну, чтобы остановить эту свадьбу, а заодно и найти смысл своей собственной жизни.-
Download sample-Качество видео: BDRip 720p | исх. [url=http://***/forum/viewtopic.php?t=4933003]Blu-ray disc (custom) 1080p[/url] - thx:
Формат: MKV-Видео: 1 280x720 (16:9), 23.976 fps, H.264, 4608.91 kb/s, 0.204 bit/pixel
Аудио №1: 48.0 kHz, AC3 Dolby Digital, 3/2 (L,C,R,l,r) + LFE ch, ~448 kbps | Профессиональный (многоголосый, закадровый) - R5
Аудио №2: 48 kHz, AC3 Dolby Digital, 2/0 (L,R), ~192 kbps | Профессиональный (многоголосый, закадровый)
Аудио №3: 48.0 kHz, AC3 Dolby Digital, 3/2 (L,C,R,l,r) + LFE ch, ~640 kbps | English
Субтитры №1: Русские (полные) | *.srt
Субтитры №2: English (full) | *.srt
Субтитры №3: English (full SDH) | *.srt-

MediaInfo
General
Unique ID : 233571054556086144686129705201587134921 (0xAFB826187D17FB92877B834CD01721C9)
Complete name : D:\Фильмы\Рипы\About Schmidt.2002.BDRip 720p.eFK tRuAVC.mkv
Format : Matroska
Format version : Version 4 / Version 2
File size : 5.17 GiB
Duration : 2h 5mn
Overall bit rate : 5 898 Kbps
Movie name : О Шмидте / About Schmidt (2002) - Release for rutracker
Encoded date : UTC 2015-11-24 19:40:36
Writing application : mkvmerge v7.6.0 ('Garden of Dreams') 64bit built on Feb 8 2015 13:04:34
Writing library : libebml v1.3.1 + libmatroska v1.4.2
Attachements : cover.png
DURATION : 02:03:34.824000000
NUMBER_OF_FRAMES : 1404
NUMBER_OF_BYTES : 54149
_STATISTICS_WRITING_APP : mkvmerge v7.6.0 ('Garden of Dreams') 64bit built on Feb 8 2015 13:04:34
_STATISTICS_WRITING_DATE_UT : 2015-11-24 19:40:36
_STATISTICS_TAGS : BPS DURATION NUMBER_OF_FRAMES NUMBER_OF_BYTES
Video
ID : 1
Format : AVC
Format/Info : Advanced Video Codec
Format profile : High@L4.1
Format settings, CABAC : Yes
Format settings, ReFrames : 8 frames
Codec ID : V_MPEG4/ISO/AVC
Duration : 2h 5mn
Bit rate : 4 501 Kbps
Width : 1 280 pixels
Height : 720 pixels
Display aspect ratio : 16:9
Frame rate mode : Constant
Frame rate : 23.976 fps
Color space : YUV
Chroma subsampling : 4:2:0
Bit depth : 8 bits
Scan type : Progressive
Bits/(Pixel*Frame) : 0.204
Stream size : 3.94 GiB (76%)
Title : eFK tRuAVC
Writing library : x264 core 148 r2638kMod 7599210
Encoding settings : cabac=1 / ref=8 / deblock=1:-3:-2 / analyse=0x3:0x113 / me=umh / subme=11 / psy=1 / fade_compensate=0.00 / psy_rd=0.95:0.02 / mixed_ref=1 / me_range=48 / chroma_me=1 / trellis=2 / 8x8dct=1 / cqm=0 / deadzone=21,11 / fast_pskip=0 / chroma_qp_offset=-3 / threads=12 / lookahead_threads=3 / sliced_threads=0 / nr=0 / decimate=1 / interlaced=0 / bluray_compat=0 / constrained_intra=0 / fgo=0 / bframes=16 / b_pyramid=2 / b_adapt=2 / b_bias=0 / direct=3 / weightb=1 / open_gop=0 / weightp=2 / keyint=250 / keyint_min=23 / scenecut=40 / intra_refresh=0 / rc_lookahead=60 / rc=crf / mbtree=0 / crf=17.5000 / qcomp=0.70 / qpmin=0 / qpmax=69 / qpstep=4 / vbv_maxrate=62500 / vbv_bufsize=78125 / crf_max=0.0 / nal_hrd=none / filler=0 / ip_ratio=1.40 / pb_ratio=1.30 / aq=3:0.85
Language : English
Default : Yes
Forced : No
Color range : Limited
Color primaries : BT.709
Transfer characteristics : BT.709
Matrix coefficients : BT.709
DURATION : 02:05:25.769000000
NUMBER_OF_FRAMES : 180438
NUMBER_OF_BYTES : 4335699770
_STATISTICS_WRITING_APP : mkvmerge v7.6.0 ('Garden of Dreams') 64bit built on Feb 8 2015 13:04:34
_STATISTICS_WRITING_DATE_UT : 2015-11-24 19:40:36
_STATISTICS_TAGS : BPS DURATION NUMBER_OF_FRAMES NUMBER_OF_BYTES
Audio #1
ID : 2
Format : AC-3
Format/Info : Audio Coding 3
Mode extension : CM (complete main)
Format settings, Endianness : Big
Codec ID : A_AC3
Duration : 2h 5mn
Bit rate mode : Constant
Bit rate : 448 Kbps
Channel(s) : 6 channels
Channel positions : Front: L C R, Side: L R, LFE
Sampling rate : 48.0 KHz
Compression mode : Lossy
Stream size : 402 MiB (8%)
Title : Профессиональный (многоголосый, закадровый) - R5
Language : Russian
Default : Yes
Forced : No
Audio #2
ID : 3
Format : AC-3
Format/Info : Audio Coding 3
Format profile : Dolby Digital
Mode extension : CM (complete main)
Format settings, Endianness : Big
Codec ID : A_AC3
Duration : 2h 5mn
Bit rate mode : Constant
Bit rate : 192 Kbps
Channel(s) : 2 channels
Channel positions : Front: L R
Sampling rate : 48.0 KHz
Compression mode : Lossy
Stream size : 172 MiB (3%)
Title : Профессиональный (многоголосый, закадровый)
Language : Russian
Default : No
Forced : No
Audio #3
ID : 4
Format : AC-3
Format/Info : Audio Coding 3
Mode extension : CM (complete main)
Format settings, Endianness : Big
Codec ID : A_AC3
Duration : 2h 5mn
Bit rate mode : Constant
Bit rate : 640 Kbps
Channel(s) : 6 channels
Channel positions : Front: L C R, Side: L R, LFE
Sampling rate : 48.0 KHz
Compression mode : Lossy
Stream size : 574 MiB (11%)
Language : English
Default : No
Forced : No
Text #1
ID : 5
Format : UTF-8
Codec ID : S_TEXT/UTF8
Codec ID/Info : UTF-8 Plain Text
Title : полные
Language : Russian
Default : No
Forced : No
Text #2
ID : 6
Format : UTF-8
Codec ID : S_TEXT/UTF8
Codec ID/Info : UTF-8 Plain Text
Title : full
Language : English
Default : No
Forced : No
Text #3
ID : 7
Format : UTF-8
Codec ID : S_TEXT/UTF8
Codec ID/Info : UTF-8 Plain Text
Title : full SDH
Language : English
Default : No
Forced : No
Menu
00:00:00.000 : :Chapter 01
00:10:21.621 : :Chapter 02
00:19:56.194 : :Chapter 03
00:29:35.774 : :Chapter 04
00:40:05.986 : :Chapter 05
00:50:13.760 : :Chapter 06
01:00:49.228 : :Chapter 07
01:10:38.817 : :Chapter 08
01:19:10.954 : :Chapter 09
01:31:14.719 : :Chapter 10
01:39:11.487 : :Chapter 11
01:53:50.323 : :Chapter 12
02:00:21.047 : :Chapter 13
x264 log
x264 [info]: frame I:1066 Avg QP:15.22 size:124178
x264 [info]: frame P:33116 Avg QP:16.63 size: 50587
x264 [info]: frame B:146256 Avg QP:18.78 size: 17285
x264 [info]: consecutive B-frames: 0.9% 0.7% 2.0% 15.0% 18.1% 42.3% 9.0% 6.5% 1.9% 1.4% 0.5% 0.4% 0.2% 0.2% 0.2% 0.3% 0.4%
x264 [info]: mb I I16..4: 6.0% 85.1% 8.9%
x264 [info]: mb P I16..4: 0.2% 16.2% 0.5% P16..4: 28.0% 35.8% 15.8% 0.0% 0.0% skip: 3.5%
x264 [info]: mb B I16..4: 0.0% 1.8% 0.0% B16..8: 30.2% 21.4% 4.2% direct: 8.4% skip:34.0% L0:42.8% L1:41.6% BI:15.6%
x264 [info]: 8x8 transform intra:95.0% inter:56.0%
x264 [info]: direct mvs spatial:99.8% temporal:0.2%
x264 [info]: coded y,uvDC,uvAC intra: 97.7% 91.5% 74.6% inter: 29.6% 27.4% 3.8%
x264 [info]: i16 v,h,dc,p: 43% 7% 17% 34%
x264 [info]: i8 v,h,dc,ddl,ddr,vr,hd,vl,hu: 10% 8% 12% 9% 12% 12% 11% 12% 13%
x264 [info]: i4 v,h,dc,ddl,ddr,vr,hd,vl,hu: 10% 8% 6% 9% 16% 15% 13% 11% 12%
x264 [info]: i8c dc,h,v,p: 48% 23% 17% 12%
x264 [info]: Weighted P-Frames: Y:5.2% UV:2.2%
x264 [info]: ref P L0: 36.6% 9.1% 22.2% 8.0% 8.6% 5.6% 6.4% 3.5% 0.1% 0.0%
x264 [info]: ref B L0: 72.7% 13.1% 5.9% 3.5% 2.5% 1.6% 0.8%
x264 [info]: ref B L1: 93.7% 6.3%
x264 [info]: kb/s:4608.91
x264 [total]: encoded 180438 frames, 6.48 fps, 4608.91 kb/s, duration 7:44:01.32
Screenshots ComparisonSource

Encode
[url=http://***/forum/viewtopic.php?t=3760215]http://***/forum/viewtopic.php?t=3760215[/url] http://screenshotcomparison.com/comparison/151796/picture:0
Скачать

Скачать торрент!

Как скачивать? · Что такое торрент? · Рейтинг и ограничения

Сайт не распространяет и не хранит электронные версии произведений, а лишь предоставляет доступ к создаваемому пользователями каталогу ссылок на торрент-файлы, которые содержат только списки хеш-сумм

[Профиль] [ЛС]
Показать сообщения:    
Ответить на тему

Текущее время: Сегодня 01:48

Часовой пояс: GMT + 4



Вы не можете начинать темы
Вы не можете отвечать на сообщения
Вы не можете редактировать свои сообщения
Вы не можете удалять свои сообщения
Вы не можете голосовать в опросах
Вы не можете прикреплять файлы к сообщениям
Вы не можете скачивать файлы