После работы / After Hours (Мартин Скорсезе / Martin Scorsese) [1985, США, чёрная комедия, триллер, HDTV 1080i] Dub + 2x MVO + Original Eng + Sub (3x Rus, Eng)

Ответить на тему
 
Автор Сообщение

user ®

Стаж: 7 лет 7 месяцев

Сообщений: 20008

Пост Пост: #1 от 03-Дек-2015 00:27

[Цитировать]

После работы / After Hours
Страна: США
Год выпуска: 1985
Жанр: Триллер, Чёрная комедия
Продолжительность: 1:33:03
Перевод 1: Профессиональный (дублированный) [Варус Видео]
Перевод 2: Профессиональный (многоголосый закадровый) [НТВ]
Перевод 3: Профессиональный (многоголосый закадровый) [ТНТ]
Оригинальная аудиодорожка: Английская
Субтитры: Русские / Английские
Режиссер: Мартин Скорсезе / Martin Scorsese
Производство: Double Play / The Geffen Company
В ролях: Гриффин Данн (Griffin Dunne), Розанна Аркетт (Rosanna Arquette), Верна Блум (Verna Bloom), Томми Чонг (Tommy Chong), Линда Фиорентино (Linda Fiorentino), Тери Гарр (Teri Garr), Джон Хёрд (John Heard), Чич Марин (Cheech Marin), Кэтрин О’Хара (Catherine O'Hara), Дик Миллер (Dick Miller) и другие.
Описание: Программист Пол Хэкет совершенно случайно знакомится в кафе с симпатичной девушкой Марси и скоро оказывается у нее в квартире… Вечеринка, мягко выражаясь, не задается с самого начала. Новая подружка неожиданно закатывает истерику и намеревается покончить с собой. Несолоно хлебавши Хэкет решает, пока не поздно, спасаться бегством, но оказывается в эпицентре криминального квартала, из которого никак не может выбраться…
Дополнительная информация: Сведение аудио, - [url=http://***/forum/profile.php?mode=viewprofile&u=1198935]Softernet[/url].
Качество: HDTV
Контейнер: MKV
Видео: MPEG-4 AVC / 15.600 kbps / 1080p / 25.000 fps / 16:9
Аудио 1: Russian / Dolby AC3 / 2.0 / 48 kHz / 192 kbps / 16 bit => [DUB]
Аудио 2: Russian / Dolby AC3 / 2.0 / 48 kHz / 192 kbps / 16 bit => [MVO]
Аудио 3: Russian / Dolby AC3 / 2.0 / 48 kHz / 192 kbps / 16 bit => [MVO]
Аудио 4: English / Dolby AC3 / 2.0 / 48 kHz / 192 kbps / 16 bit
Sample MediaInfo
Формат : Matroska
Версия формата : Version 4 / Version 2
Размер файла : 10,9 Гбайт
Продолжительность : 1 ч. 33 м.
Общий поток : 16,7 Мбит/сек
Дата кодирования : UTC 2015-11-24 20:35:28
Программа кодирования : mkvmerge v8.5.2 ('Crosses') 64bit
Библиотека кодирования : libebml v1.3.3 + libmatroska v1.4.4
DURATION : 01:31:56.577000000
NUMBER_OF_FRAMES : 1061
NUMBER_OF_BYTES : 38107
_STATISTICS_WRITING_APP : mkvmerge v8.5.2 ('Crosses') 64bit
_STATISTICS_WRITING_DATE_UTC : 2015-11-24 20:35:28
_STATISTICS_TAGS : BPS DURATION NUMBER_OF_FRAMES NUMBER_OF_BYTES
Видео
Идентификатор : 1
Формат : AVC
Формат/Информация : Advanced Video Codec
Профиль формата : High@L4
Параметр CABAC формата : Да
Параметр ReFrames формата : 2 кадра
Параметр GOP формата : M=3, N=12
Идентификатор кодека : V_MPEG4/ISO/AVC
Продолжительность : 1 ч. 33 м.
Битрейт : 15,6 Мбит/сек
Ширина : 1920 пикселей
Высота : 1088 пикселей
Соотношение сторон : 16:9
Режим частоты кадров : Постоянный
Частота кадров : 25,000 кадров/сек
Цветовое пространство : YUV
Субдискретизация насыщенности : 4:2:0
Битовая глубина : 8 бит
Тип развёртки : Чересстрочная
Порядок развёртки : Верхнее поле первое
Бит/(Пиксели*Кадры) : 0.299
Размер потока : 10,1 Гбайт (93%)
Default : Нет
Forced : Нет
Цветовой диапазон : Full
Основные цвета : BT.709
Характеристики трансфера : BT.709
Коэффициенты матрицы : BT.709
Аудио #1
Идентификатор : 2
Формат : AC-3
Формат/Информация : Audio Coding 3
Расширение режима : CM (complete main)
Параметр Endianness формата : Big
Идентификатор кодека : A_AC3
Продолжительность : 1 ч. 33 м.
Вид битрейта : Постоянный
Битрейт : 192 Кбит/сек
Каналы : 2 канала
Расположение каналов : Front: L R
Частота : 48,0 КГц
Метод сжатия : С потерями
Размер потока : 128 Мбайт (1%)
Заголовок : DUB [Варус Видео]
Язык : Russian
Default : Нет
Forced : Нет
Аудио #2
Идентификатор : 3
Формат : AC-3
Формат/Информация : Audio Coding 3
Расширение режима : CM (complete main)
Параметр Endianness формата : Big
Идентификатор кодека : A_AC3
Продолжительность : 1 ч. 33 м.
Вид битрейта : Постоянный
Битрейт : 192 Кбит/сек
Каналы : 2 канала
Расположение каналов : Front: L R
Частота : 48,0 КГц
Метод сжатия : С потерями
Размер потока : 128 Мбайт (1%)
Заголовок : MVO [НТВ]
Язык : Russian
Default : Нет
Forced : Нет
Аудио #3
Идентификатор : 4
Формат : AC-3
Формат/Информация : Audio Coding 3
Расширение режима : CM (complete main)
Параметр Endianness формата : Big
Идентификатор кодека : A_AC3
Продолжительность : 1 ч. 33 м.
Вид битрейта : Постоянный
Битрейт : 192 Кбит/сек
Каналы : 2 канала
Расположение каналов : Front: L R
Частота : 48,0 КГц
Метод сжатия : С потерями
Размер потока : 128 Мбайт (1%)
Заголовок : MVO [ТНТ]
Язык : Russian
Default : Нет
Forced : Нет
Аудио #4
Идентификатор : 5
Формат : AC-3
Формат/Информация : Audio Coding 3
Расширение режима : CM (complete main)
Параметр Endianness формата : Big
Идентификатор кодека : A_AC3
Продолжительность : 1 ч. 33 м.
Вид битрейта : Постоянный
Битрейт : 192 Кбит/сек
Каналы : 2 канала
Расположение каналов : Front: L R
Частота : 48,0 КГц
Метод сжатия : С потерями
Размер потока : 128 Мбайт (1%)
Заголовок : Original
Язык : English
Default : Нет
Forced : Нет
Текст #1
Идентификатор : 6
Формат : UTF-8
Идентификатор кодека : S_TEXT/UTF8
Идентификатор кодека/Информация : UTF-8 Plain Text
Заголовок : Первостепенные [Общие]
Язык : Russian
Default : Нет
Forced : Нет
Текст #2
Идентификатор : 7
Формат : UTF-8
Идентификатор кодека : S_TEXT/UTF8
Идентификатор кодека/Информация : UTF-8 Plain Text
Заголовок : Первостепенные [Общие]
Язык : Russian
Default : Нет
Forced : Нет
Текст #3
Идентификатор : 8
Формат : UTF-8
Идентификатор кодека : S_TEXT/UTF8
Идентификатор кодека/Информация : UTF-8 Plain Text
Заголовок : Второстепенные [Частичные]
Язык : Russian
Default : Нет
Forced : Нет
Текст #4
Идентификатор : 9
Формат : UTF-8
Идентификатор кодека : S_TEXT/UTF8
Идентификатор кодека/Информация : UTF-8 Plain Text
Заголовок : SDI Media Group
Язык : English
Default : Нет
Forced : Нет
Screenshots
Скачать

Скачать торрент!

Как скачивать? · Что такое торрент? · Рейтинг и ограничения

Сайт не распространяет и не хранит электронные версии произведений, а лишь предоставляет доступ к создаваемому пользователями каталогу ссылок на торрент-файлы, которые содержат только списки хеш-сумм

[Профиль] [ЛС]
Показать сообщения:    
Ответить на тему

Текущее время: Сегодня 02:16

Часовой пояс: GMT + 4



Вы не можете начинать темы
Вы не можете отвечать на сообщения
Вы не можете редактировать свои сообщения
Вы не можете удалять свои сообщения
Вы не можете голосовать в опросах
Вы не можете прикреплять файлы к сообщениям
Вы не можете скачивать файлы