Форт Блисс / Fort Bliss (Клаудия Майерс / Claudia Myers) [2014, Турция, США, драма, военный, WEB-DL 1080p] MVO + Original Eng

Ответить на тему
 
Автор Сообщение

user ®

Стаж: 7 лет 7 месяцев

Сообщений: 20008

Пост Пост: #1 от 03-Дек-2015 00:27

[Цитировать]

Форт Блисс / Fort Bliss
Страна: Турция, США
Студия: National Picture Show Co., Yeniceri Produksiyon A.S.
Жанр: драма, военный
Год выпуска: 2014
Продолжительность: 01:49:43
Перевод: Профессиональный (многоголосый закадровый) iTunes
Cубтитры: нет
Оригинальная аудиодорожка: английский
Режиссер: Клаудия Майерс / Claudia Myers
В ролях: Мишель Монахэн, Эммануэль Шрики, Пабло Шрайбер, Рон Ливингстон, Дэш Майок, Фредди Родригес, Джон Сэвэдж, Маноло Кардона, Гбенга Акиннагбе
Описание: Вернувшись домой после длительной службы в Афганистане, медик армии США и мать одиночка пытается восстановить свои отношения с ее сыном.
Кинопоиск
Sample
Тип релиза: WEB-DL 1080p
Контейнер: MKV
Видео: MPEG4 AVC Video, H264, 16:9, 1920x1038, 23.976 fps, 5140 kbps
Аудио: Russian (AC3, 6 ch, 384 kbps, 16 bits, 48.0 KHz) - MVO
Аудио 2: English (AC3, 6 ch, 384 kbps, 16 bits, 48.0 KHz) - оригинал

MediaInfo
General
Unique ID : 220356592741707254919550989889518320185 (0xA5C722D38BD7758C8A58698E954E3A39)
Complete name : K:\Fort Bliss 2014 WEB-DL 1080p.mkv
Format : Matroska
Format version : Version 4 / Version 2
File size : 4.62 GiB
Duration : 1h 49mn
Overall bit rate : 6 028 Kbps
Encoded date : UTC 2015-11-25 10:46:37
Writing application : mkvmerge v6.1.0 ('Old Devil') built on Mar 2 2013 14:32:37
Writing library : libebml v1.3.0 + libmatroska v1.4.0
Video
ID : 1
Format : AVC
Format/Info : Advanced Video Codec
Format profile : High@L4.0
Format settings, CABAC : Yes
Format settings, ReFrames : 4 frames
Codec ID : V_MPEG4/ISO/AVC
Duration : 1h 49mn
Bit rate : 5 140 Kbps
Width : 1 920 pixels
Height : 1 038 pixels
Display aspect ratio : 1.85:1
Frame rate mode : Constant
Frame rate : 23.976 fps
Color space : YUV
Chroma subsampling : 4:2:0
Bit depth : 8 bits
Scan type : Progressive
Bits/(Pixel*Frame) : 0.108
Stream size : 3.94 GiB (85%)
Language : English
Default : Yes
Forced : No
Color primaries : BT.709
Transfer characteristics : BT.709
Matrix coefficients : BT.709
Audio #1
ID : 2
Format : AC-3
Format/Info : Audio Coding 3
Mode extension : CM (complete main)
Format settings, Endianness : Big
Codec ID : A_AC3
Duration : 1h 49mn
Bit rate mode : Constant
Bit rate : 384 Kbps
Channel count : 6 channels
Channel positions : Front: L C R, Side: L R, LFE
Sampling rate : 48.0 KHz
Bit depth : 16 bits
Compression mode : Lossy
Stream size : 301 MiB (6%)
Language : Russian
Default : Yes
Forced : No
Audio #2
ID : 3
Format : AC-3
Format/Info : Audio Coding 3
Mode extension : CM (complete main)
Format settings, Endianness : Big
Codec ID : A_AC3
Duration : 1h 49mn
Bit rate mode : Constant
Bit rate : 384 Kbps
Channel count : 6 channels
Channel positions : Front: L C R, Side: L R, LFE
Sampling rate : 48.0 KHz
Bit depth : 16 bits
Compression mode : Lossy
Stream size : 301 MiB (6%)
Language : English
Default : No
Forced : No
Menu
00:00:00.000 : en:Chapter 01
00:09:06.000 : en:Chapter 02
00:20:59.000 : en:Chapter 03
00:30:19.000 : en:Chapter 04
00:41:00.000 : en:Chapter 05
00:52:32.000 : en:Chapter 06
01:02:29.000 : en:Chapter 07
01:11:44.000 : en:Chapter 08
01:20:11.000 : en:Chapter 09
01:29:39.000 : en:Chapter 10
01:40:48.000 : en:Chapter 11
01:44:55.000 : en:Chapter 12
Скриншоты
Скачать

Скачать торрент!

Как скачивать? · Что такое торрент? · Рейтинг и ограничения

Сайт не распространяет и не хранит электронные версии произведений, а лишь предоставляет доступ к создаваемому пользователями каталогу ссылок на торрент-файлы, которые содержат только списки хеш-сумм

[Профиль] [ЛС]
Показать сообщения:    
Ответить на тему

Текущее время: Сегодня 04:27

Часовой пояс: GMT + 4



Вы не можете начинать темы
Вы не можете отвечать на сообщения
Вы не можете редактировать свои сообщения
Вы не можете удалять свои сообщения
Вы не можете голосовать в опросах
Вы не можете прикреплять файлы к сообщениям
Вы не можете скачивать файлы