Сплоченные / Пальцы сжатые в кулак / Band of the hand (Пол Майкл Глэйзер / Paul Michael Glaser) [1986, США, боевик, драма, криминал, WEB-DL 720p] DVO (2х2) + Sub Eng + Original Eng

Ответить на тему
 
Автор Сообщение

user ®

Стаж: 7 лет 7 месяцев

Сообщений: 20008

Пост Пост: #1 от 03-Дек-2015 00:27

[Цитировать]

Сплоченные / Пальцы сжатые в кулак / Band of the hand
Страна: США
Жанр: боевик, драма, криминал
Год выпуска: 1986
Продолжительность: 01:49:41
Перевод: Профессиональный (двухголосый закадровый) 2х2
Cубтитры: английские
Оригинальная аудиодорожка: английский
Режиссер: Пол Майкл Глэйзер / Paul Michael Glaser
В ролях: Стивен Лэнг, Майкл Кармайн, Лорен Холли, Джон Кэмерон Митчелл, Дэнни Куинн, Леон Робинсон, Эл Шеннон, Дэнтон Стоун, Пол Кальдерон, Лоренс Фишберн, Джеймс Римар
Описание: Пятеро безнадежных преступников направлены в городок Эверглейдс для прохождения специально «курса выживания» — тренировок под руководством Индейца Джо. Именно так государство решает перевоспитать своих граждан. После окончания курса парни возвращаются в Майами, что совершенно не устраивает местного наркобарона. Конфликт быстро перерастает в настоящую войну.
Доп. информация: За русскую дорожку спасибо vedigo.
Кинопоиск
Sample
Тип релиза: WEB-DL 720p
Контейнер: MKV
Видео: MPEG4 AVC Video, H264, 1280x718, 23.976 fps, 3894 kbps
Аудио: Russian (AC3, 2 ch, 192 kbps, 16 bits, 48.0 KHz) - DVO
Аудио 2: English (AC3, 2 ch, 192 kbps, 16 bits, 48.0 KHz) - оригинал
Формат субтитров: softsub (SRT)

MediaInfo
General
Unique ID : 178403807329159290625725320087625627137 (0x863752CF1CE64F6AA01CBEB39EC57601)
Complete name : K:\Band of the Hand 1986 WEB-DL 720p.mkv
Format : Matroska
Format version : Version 4 / Version 2
File size : 3.34 GiB
Duration : 1h 49mn
Overall bit rate : 4 365 Kbps
Encoded date : UTC 2015-11-25 11:11:52
Writing application : mkvmerge v6.1.0 ('Old Devil') built on Mar 2 2013 14:32:37
Writing library : libebml v1.3.0 + libmatroska v1.4.0
Video
ID : 1
Format : AVC
Format/Info : Advanced Video Codec
Format profile : High@L3.1
Format settings, CABAC : No
Format settings, ReFrames : 2 frames
Codec ID : V_MPEG4/ISO/AVC
Duration : 1h 49mn
Bit rate : 3 894 Kbps
Width : 1 280 pixels
Height : 718 pixels
Display aspect ratio : 16:9
Frame rate mode : Constant
Frame rate : 23.976 fps
Color space : YUV
Chroma subsampling : 4:2:0
Bit depth : 8 bits
Scan type : Progressive
Bits/(Pixel*Frame) : 0.177
Stream size : 2.98 GiB (89%)
Language : English
Default : Yes
Forced : No
Color primaries : BT.709
Transfer characteristics : BT.709
Matrix coefficients : BT.709
Audio #1
ID : 2
Format : AC-3
Format/Info : Audio Coding 3
Mode extension : CM (complete main)
Format settings, Endianness : Big
Codec ID : A_AC3
Duration : 1h 49mn
Bit rate mode : Constant
Bit rate : 192 Kbps
Channel count : 2 channels
Channel positions : Front: L R
Sampling rate : 48.0 KHz
Bit depth : 16 bits
Compression mode : Lossy
Stream size : 151 MiB (4%)
Language : Russian
Default : Yes
Forced : No
Audio #2
ID : 3
Format : AC-3
Format/Info : Audio Coding 3
Mode extension : CM (complete main)
Format settings, Endianness : Big
Codec ID : A_AC3
Duration : 1h 49mn
Bit rate mode : Constant
Bit rate : 192 Kbps
Channel count : 2 channels
Channel positions : Front: L R
Sampling rate : 48.0 KHz
Bit depth : 16 bits
Compression mode : Lossy
Stream size : 151 MiB (4%)
Language : English
Default : No
Forced : No
Text
ID : 4
Format : UTF-8
Codec ID : S_TEXT/UTF8
Codec ID/Info : UTF-8 Plain Text
Language : English
Default : No
Forced : No
Menu
00:00:00.000 : en:Start
00:07:55.000 : en:The boys in the van
00:10:07.000 : en:Welcome to the Everglades
00:15:03.000 : en:A guy named Joe
00:20:48.000 : en:Dinner by candlelight
00:22:46.000 : en:"Rattler's gone."
00:25:36.000 : en:50/50 chance
00:27:57.000 : en:Nestor
00:33:49.000 : en:Wild boar
00:37:54.000 : en:Exam time
00:45:20.000 : en:Return to civilization
00:49:25.000 : en:Haitian squatters
00:52:17.000 : en:Cream
00:55:38.000 : en:"I'm working for Nestor."
01:01:31.000 : en:Probation reports
01:03:42.000 : en:Teaching respect
01:06:21.000 : en:"This park is mine."
01:09:42.000 : en:"I'm not backing up anymore."
01:12:38.000 : en:Band of the hand
01:16:09.000 : en:"Broken Wings"
01:18:59.000 : en:Cream declares war
01:20:41.000 : en:One man army
01:25:11.000 : en:Breaking up is hard to do
01:32:23.000 : en:How to kill an armadillo
01:36:15.000 : en:Breaking & entering
01:38:55.000 : en:All hell breaks loose
01:43:31.000 : en:"Give me the gun, Nikki."
01:44:03.000 : en:Crazy blows it
Скриншоты
Скачать

Скачать торрент!

Как скачивать? · Что такое торрент? · Рейтинг и ограничения

Сайт не распространяет и не хранит электронные версии произведений, а лишь предоставляет доступ к создаваемому пользователями каталогу ссылок на торрент-файлы, которые содержат только списки хеш-сумм

[Профиль] [ЛС]
Показать сообщения:    
Ответить на тему

Текущее время: Сегодня 08:01

Часовой пояс: GMT + 4



Вы не можете начинать темы
Вы не можете отвечать на сообщения
Вы не можете редактировать свои сообщения
Вы не можете удалять свои сообщения
Вы не можете голосовать в опросах
Вы не можете прикреплять файлы к сообщениям
Вы не можете скачивать файлы