Семья / Там, куда поздно приходит весна / Where Spring Comes Late / Kazoku (Ёдзи Ямада / Yoji Yamada) [1970, Япония, драма, DVDRip] Sub Rus Eng

Ответить на тему
 
Автор Сообщение

user ®

Стаж: 13 лет

Сообщений: 15071

Пост Пост: #1 от 02-Дек-2015 12:03

[Цитировать]

Семья / Там, куда поздно приходит весна / Where Spring Comes Late / Kazoku / 家族
Страна: Япония
Жанр: драма
Год выпуска: 1970
Продолжительность: 01:46:40
Перевод 1: Субтитры русские - [url=http://***/forum/tracker.php?rid=6473541]дед_сто_лет[/url]©
Перевод 2: Субтитры английские.
Cубтитры: русские
Оригинальная аудиодорожка: японский
Режиссер: [url=http://***/forum/tracker.php?nm=Yoji%20Yamada]Ёдзи Ямада / Yoji Yamada[/url]
В ролях: [url=http://***/forum/viewtopic.php?t=5100594]Хисаси ИГАВА[/url], [url=http://***/forum/viewtopic.php?t=5052686]Тиэко БАЙСЁ[/url], Тисю Рю, Цуёси Киносьта, Тиако Сэо, Гин Маэда, Масако Тояма, Хисао Дадзай, Токуэ Ханасава, Хадзимэ Хана, Хироси Инудзука, Сэрин Сакураи, Этаро Исибаси, Син Ясуда, Син Морикава
Описание: Фильм о типичной японской семье с юга страны. Люди вынуждены в поисках работы и благополучия бежать с насиженных мест. Там в Нагасаки всегда тепло, там их окружает родная католическая община. Что ждет их на далеком Хоккайдо, где весна приходит только в июне? Такая же семья, с теми же именами появится в работе Ёдзи Ямада в 1972 году в фильме [url=http://***/forum/viewtopic.php?t=5122967]Родной город[/url].©
Продолжаем [url=http://***/forum/viewtopic.php?p=67708138#67708138]СНЕЖНУЮ ТЕМУ[/url].
> > > > > > >
Качество видео: DVDRip
Формат видео: AVI
Видео: 704x304 (2.32:1), 23.976 fps, XviD build 50 ~1464 kbps avg, 0.28 bit/pixel
Аудио: 48 kHz, MPEG Layer 3, 2 ch, ~192.00 kbps avg
Формат субтитров: softsub (SRT)
Доп. информация о субтитрах: дед_сто_лет
Пример субтитров
224
00:18:25,171 --> 00:18:26,582
Как они быстро едут!
225
00:18:27,373 --> 00:18:29,933
У дяди Цутому такая же машина, как эти.
226
00:18:30,343 --> 00:18:33,176
Цуёси, дядя прокати тебя в
Фукуяма на своей машине.
227
00:18:33,312 --> 00:18:34,905
Он сам умеет водить.
228
00:18:35,514 --> 00:18:38,677
Может он отвезёт нас на
машине до Внутреннего моря...
229
00:18:38,818 --> 00:18:42,277
... раз уж мы будем в Фукуяма?
230
00:18:42,421 --> 00:18:45,300
До сих пор Цуёси когда-нибудь
ездил на машине?
231
00:18:45,391 --> 00:18:46,415
Ты ездил?
232
00:18:46,525 --> 00:18:48,425
Ездил однажды, сразу после родов.
233
00:18:48,561 --> 00:18:50,939
На старом грузовике Исида-сан?
234
00:18:51,664 --> 00:18:54,577
У меня сразу заболел живот,
как только я в него села.
235
00:19:09,215 --> 00:19:12,128
ФУКУЯМА -
ПРЕФЕКТУРА ХИРОСИМА
236
00:19:41,814 --> 00:19:43,111
А, Цутому-сан!
237
00:19:49,455 --> 00:19:50,479
Здравствуйте.
238
00:19:51,490 --> 00:19:53,766
Цутому, ты на машине приехал?
239
00:19:53,859 --> 00:19:55,634
- Да.
- Видишь, Цуёси?
240
00:19:55,728 --> 00:19:57,765
Мы поедем на дядиной машине!
241
00:19:57,863 --> 00:19:59,308
Как замечательно...
242
00:19:59,432 --> 00:20:01,423
Все не влезут.
Придётся взять такси.
243
00:20:01,567 --> 00:20:04,036
Почему?
Сколько человек ты можешь посадить?
244
00:20:04,170 --> 00:20:05,240
Четырёх взрослых.
245
00:20:06,072 --> 00:20:07,779
Нас столько и есть.
246
00:20:08,841 --> 00:20:10,821
Дети могут потесниться.
247
00:20:11,277 --> 00:20:13,018
Не стоит тратиться на такси.
MediaInfo
General
Complete name : C:\...\Kazoku(1970)Yoji.Yamada\Kazoku(1970)Yoji.Yamada.avi
Format : AVI
Format/Info : Audio Video Interleave
File size : 1.24 GiB
Duration : 1h 46mn
Overall bit rate : 1 666 Kbps
Writing application : VirtualDubMod 1.5.4.1 (build 2178/release)
Writing library : VirtualDub-MPEG2 build 24600/release
Video
ID : 0
Format : MPEG-4 Visual
Format profile : Advanced Simple@L5
Format settings, BVOP : 1
Format settings, QPel : No
Format settings, GMC : No warppoints
Format settings, Matrix : Custom
Codec ID : XVID
Codec ID/Hint : XviD
Duration : 1h 46mn
Bit rate : 1 465 Kbps
Width : 704 pixels
Height : 304 pixels
Display aspect ratio : 2.35:1
Frame rate : 23.976 fps
Color space : YUV
Chroma subsampling : 4:2:0
Bit depth : 8 bits
Scan type : Progressive
Compression mode : Lossy
Bits/(Pixel*Frame) : 0.285
Stream size : 1.09 GiB (88%)
Writing library : XviD 1.2.1 (UTC 2008-12-04)
Audio
ID : 1
Format : MPEG Audio
Format version : Version 1
Format profile : Layer 3
Mode : Joint stereo
Mode extension : MS Stereo
Codec ID : 55
Codec ID/Hint : MP3
Duration : 1h 46mn
Bit rate mode : Constant
Bit rate : 192 Kbps
Channel(s) : 2 channels
Sampling rate : 48.0 KHz
Compression mode : Lossy
Stream size : 146 MiB (12%)
Alignment : Aligned on interleaves
Interleave, duration : 42 ms (1.00 video frame)
Interleave, preload duration : 504 ms
Writing library : LAME3.98r
Encoding settings : -m j -V 4 -q 2 -lowpass 18.6 -b 192
Скриншот c названием фильма Скриншоты
Скачать

Скачать торрент! Семья / Там, куда поздно приходит весна / Where Spring Comes Late / Kazoku (Ёдзи Ямада / Yoji Yamada) [1970, Япония, драма, DVDRip] Sub Rus Eng

Как скачивать? · Что такое торрент? · Рейтинг и ограничения

Сайт не распространяет и не хранит электронные версии произведений, а лишь предоставляет доступ к создаваемому пользователями каталогу ссылок на торрент-файлы, которые содержат только списки хеш-сумм

[Профиль] [ЛС]
Показать сообщения:    
Ответить на тему

Текущее время: Сегодня 17:44

Часовой пояс: GMT + 4



Вы не можете начинать темы
Вы не можете отвечать на сообщения
Вы не можете редактировать свои сообщения
Вы не можете удалять свои сообщения
Вы не можете голосовать в опросах
Вы не можете прикреплять файлы к сообщениям
Вы не можете скачивать файлы