Тот берег / На том берегу / Us-Paar (Басу Чаттерджи / Basu Chatterjee) [1974, Индия, Драма, мелодрама, DVDRip-AVC] VO (Nastia) + Original

Ответить на тему
 
Автор Сообщение

user ®

Стаж: 13 лет

Сообщений: 15070

Пост Пост: #1 от 02-Дек-2015 12:03

[Цитировать]

Тот берег / На том берегу / Us-Paar
Страна: Индия
Жанр: Драма, мелодрама
Год выпуска: 1974
Продолжительность: 01:48:09
Перевод: Одноголосый закадровый Nastia
Cубтитры: нет
Оригинальная аудиодорожка: хинди
Режиссер: Басу Чаттерджи / Basu Chatterjee
В ролях: Винод Мехра, Моушуми Чаттерджи, Падма Ханна, Джалал Ага, А.К. Хангал, Лалита Кумари, Пайнтал, Раджа Паранжпе
Описание: Мохан - студент и бездельник. На каникулах, в отсутствие отца, он ухаживает за больным дедушкой и вопреки наказу отца совершенно не готовится к экзаменам. На ярмарке Мохан знакомится с прелестной цыганкой - карусельщицей Камли. Забыв свою прежнюю подругу - деревенскую девушку Дханию, он всем сердцем устремляется к Камли. Камли же, забыв о своем нелюбимом женихе Бхайро, влюбляется в Мохана. Но цыгане скоро должны уходить из деревни, поэтому Мохан с Камли решаются бежать вместе...
Доп. информация:
Озвучка: Nastia (Спасибо!)
Перевод субтитров: larisa_k (Спасибо!)
Релиз, сведение аудио: керелис (Спасибо!)
Сэмпл: http://multi-up.com/1077442
Качество видео: DVDRip-AVC
Формат видео: MKV
Видео: 720x544 (1.324:1), 25.049 fps, AVC, ~ 2363 Kbps, 0.241 bits/pixel
Аудио: Русский, 48 KHz, АС3, 2 ch, 192 Kbps
Аудио 2: Хинди, 48 KHz, АС3, 2 ch, 192 Kbps
MediaInfo
General
Complete name : F:\Tot.Bereg.1974.DVDRip.x264.BWTorrents.mkv
Format : Matroska
File size : 2.12 GiB
Duration : 1h 48mn
Overall bit rate : 2 803 Kbps
Encoded date : UTC 2015-11-11 20:32:45
Writing application : mkvmerge v5.4.0 ('Piper') built on Mar 10 2012 13:34:39
Writing library : libebml v1.2.3 + libmatroska v1.3.0
Video
ID : 1
Format : AVC
Format/Info : Advanced Video Codec
Format profile : High@L3.1
Format settings, CABAC : Yes
Format settings, ReFrames : 7 frames
Muxing mode : Container profile=Unknown@3.1
Codec ID : V_MPEG4/ISO/AVC
Duration : 1h 48mn
Bit rate : 2 363 Kbps
Nominal bit rate : 2 418 Kbps
Width : 720 pixels
Height : 544 pixels
Display aspect ratio : 4/3
Frame rate mode : Variable
Frame rate : 25.049 fps
Resolution : 24 bits
Colorimetry : 4:2:0
Scan type : Progressive
Bits/(Pixel*Frame) : 0.241
Stream size : 1.79 GiB (84%)
Writing library : x264 core 112
Encoding settings : cabac=1 / ref=7 / deblock=1:0:0 / analyse=0x3:0x113 / me=umh / subme=7 / psy=1 / psy_rd=1.00:0.00 / mixed_ref=1 / me_range=16 / chroma_me=1 / trellis=1 / 8x8dct=1 / cqm=0 / deadzone=21,11 / fast_pskip=1 / chroma_qp_offset=-2 / threads=3 / sliced_threads=0 / nr=0 / decimate=1 / interlaced=0 / constrained_intra=0 / bframes=3 / b_pyramid=2 / b_adapt=2 / b_bias=0 / direct=1 / weightb=1 / open_gop=0 / weightp=2 / keyint=300 / keyint_min=25 / scenecut=40 / intra_refresh=0 / rc_lookahead=50 / rc=2pass / mbtree=1 / bitrate=2418 / ratetol=1.0 / qcomp=0.60 / qpmin=3 / qpmax=51 / qpstep=4 / cplxblur=20.0 / qblur=0.5 / ip_ratio=1.40 / aq=1:1.00
Audio #1
ID : 2
Format : AC-3
Format/Info : Audio Coding 3
Codec ID : A_AC3
Duration : 1h 48mn
Bit rate mode : Constant
Bit rate : 192 Kbps
Channel(s) : 2 channels
Channel positions : L R
Sampling rate : 48.0 KHz
Stream size : 149 MiB (7%)
Language : Russian
Audio #2
ID : 3
Format : AC-3
Format/Info : Audio Coding 3
Codec ID : A_AC3
Duration : 1h 48mn
Bit rate mode : Constant
Bit rate : 192 Kbps
Channel(s) : 2 channels
Channel positions : L R
Sampling rate : 48.0 KHz
Stream size : 149 MiB (7%)
Language : Hindi
Menu
00:00:00.000 : en:Chapter 1
00:04:05.770 : en:Chapter 2
00:07:16.444 : en:Chapter 3
00:09:21.561 : en:Chapter 4
00:13:43.330 : en:Chapter 5
00:13:55.843 : en:Chapter 6
00:22:09.861 : en:Chapter 7
00:23:33.937 : en:Chapter 8
00:27:05.624 : en:Chapter 9
00:33:09.504 : en:Chapter 10
00:40:06.420 : en:Chapter 11
00:44:18.689 : en:Chapter 12
00:48:24.434 : en:Chapter 13
00:53:01.194 : en:Chapter 14
00:56:51.441 : en:Chapter 15
01:03:14.799 : en:Chapter 16
01:05:27.448 : en:Chapter 17
01:12:08.324 : en:Chapter 18
01:16:31.612 : en:Chapter 19
01:19:43.295 : en:Chapter 20
01:23:57.532 : en:Chapter 21
01:28:53.328 : en:Chapter 22
01:32:49.063 : en:Chapter 23
01:41:22.584 : en:Chapter 24
01:45:14.308 : en:Chapter 25
01:45:20.314 : en:Chapter 26
Скриншоты
Скачать

Скачать торрент! Тот берег / На том берегу / Us-Paar (Басу Чаттерджи / Basu Chatterjee) [1974, Индия, Драма, мелодрама, DVDRip-AVC] VO (Nastia) + Original

Как скачивать? · Что такое торрент? · Рейтинг и ограничения

Сайт не распространяет и не хранит электронные версии произведений, а лишь предоставляет доступ к создаваемому пользователями каталогу ссылок на торрент-файлы, которые содержат только списки хеш-сумм

[Профиль] [ЛС]
Показать сообщения:    
Ответить на тему

Текущее время: Сегодня 16:39

Часовой пояс: GMT + 4



Вы не можете начинать темы
Вы не можете отвечать на сообщения
Вы не можете редактировать свои сообщения
Вы не можете удалять свои сообщения
Вы не можете голосовать в опросах
Вы не можете прикреплять файлы к сообщениям
Вы не можете скачивать файлы