Препятствие в пути / Pathey Holo Deri (Аградут / Agradoot) [1957, Индия, Мелодрама, DVDRip] VO (Бахурани) + Sub Rus (на песни)

Ответить на тему
 
Автор Сообщение

user ®

Стаж: 12 лет

Сообщений: 15092

Пост Пост: #1 от 02-Дек-2015 12:03

[Цитировать]

Препятствие в пути / Pathey Holo Deri
Страна: Индия
Жанр: Мелодрама
Год выпуска: 1957
Продолжительность: 02:26:41
Перевод: Одноголосый закадровый Бахурани
Cубтитры: русские (только на тексты песен)
Режиссер: Аградут / Agradoot
В ролях: Уттам Кумар, Сучитра Сен, Камала Мукхерджи, Читра Мандал, Ануп Кумар, Шишир Батабиал, Анил Бхаттачария, Михир Бхаттачария, Бхарати Деви, Чхаби Бисвас, Джахар Гангули
Описание: Эта история любви бедного доктора Джаянта Мукерджи и богатой наследницы Моллики Банерджи. Дедушка Моллики решил выдать замуж свою внучку за сына миллионера. Чтобы помочь любимому получить докторскую степень в Англии, девушка тайком продает украшения своей матери. Узнав об этом, дед приходит в ярость, он убеждает внучку в том, что Джаянта использовал ее ради денег. Одновременно он пишет письмо Джаянте, что Моллика выходит замуж. Вскоре Молли узнает, что доктор женится на Аарти, с которой познакомился в Европе…
Доп. информация:
Озвучка: Бахурани (Спасибо!)
Материалы: larisa_k (Спасибо!)
Перевод, работа с аудио: керелис (Спасибо!)
Сэмпл: http://multi-up.com/1077452
Качество видео: DVDRip
Формат видео: AVI
Видео: DivX Codec 4.x, 640x480 (1.33:1), 23.976 fps, 1388 kbps avg
Аудио: MPEG Layer 3, 44.100 kHz, 2/0 (L,R) ch, 192.00 kbps
MediaInfo
General
Complete name : F:\Prepjatstvie.v.puti.1957.DVDRip.DivX.BWTorrents\Prepjatstvie.v.puti.1957.DVDRip.DivX.BWTorrents.avi
Format : AVI
Format/Info : Audio Video Interleave
File size : 1.63 GiB
Duration : 2h 26mn
Overall bit rate : 1 590 Kbps
Writing application : Lavf52.32.0
Writing library : VirtualDub build 30091/release
Video
ID : 0
Format : MPEG-4 Visual
Format profile : Simple@L1
Format settings, BVOP : No
Format settings, QPel : No
Format settings, GMC : No warppoints
Format settings, Matrix : Default (H.263)
Codec ID : DIVX
Codec ID/Info : Project Mayo
Codec ID/Hint : DivX 4
Duration : 2h 26mn
Bit rate : 1 388 Kbps
Width : 640 pixels
Height : 480 pixels
Display aspect ratio : 4/3
Frame rate : 23.976 fps
Resolution : 24 bits
Colorimetry : 4:2:0
Scan type : Progressive
Bits/(Pixel*Frame) : 0.188
Stream size : 1.42 GiB (87%)
Writing library : Lavc52.22.3
Audio
ID : 1
Format : MPEG Audio
Format version : Version 1
Format profile : Layer 3
Codec ID : 55
Codec ID/Hint : MP3
Duration : 2h 26mn
Bit rate mode : Constant
Bit rate : 192 Kbps
Channel(s) : 2 channels
Sampling rate : 44.1 KHz
Resolution : 16 bits
Stream size : 201 MiB (12%)
Alignment : Split accross interleaves
Interleave, duration : 42 ms (1.00 video frame)
Interleave, preload duration : 500 ms
Скриншоты
Скачать

Скачать торрент! Препятствие в пути / Pathey Holo Deri (Аградут / Agradoot) [1957, Индия, Мелодрама, DVDRip] VO (Бахурани) + Sub Rus (на песни)

Как скачивать? · Что такое торрент? · Рейтинг и ограничения

Сайт не распространяет и не хранит электронные версии произведений, а лишь предоставляет доступ к создаваемому пользователями каталогу ссылок на торрент-файлы, которые содержат только списки хеш-сумм

[Профиль] [ЛС]
Показать сообщения:    
Ответить на тему

Текущее время: Сегодня 05:43

Часовой пояс: GMT + 4



Вы не можете начинать темы
Вы не можете отвечать на сообщения
Вы не можете редактировать свои сообщения
Вы не можете удалять свои сообщения
Вы не можете голосовать в опросах
Вы не можете прикреплять файлы к сообщениям
Вы не можете скачивать файлы