Без следа / Without a Trace (Стэнли Р. Джаффе / Stanley R. Jaffe) [1983, США, драма, детектив, HDTV 1080i] MVO (1 канал)

Ответить на тему
 
Автор Сообщение

user ®

Стаж: 7 лет 7 месяцев

Сообщений: 20008

Пост Пост: #1 от 02-Дек-2015 02:48

[Цитировать]

Без следа / Without a Trace
Страна: США
Жанр: Драма, Детектив
Год выпуска: 1983
Продолжительность: 01:53:48.8
Перевод: Профессиональный (многоголосый закадровый) 1 канал
Cубтитры: нет
Оригинальная аудиодорожка: нет
Режиссер: Стэнли Р. Джаффе / Stanley R. Jaffe
В ролях: Кейт Неллиган, Джадд Хeрш, Дэвид Дьюкс, Стокард Ченнинг, Жаклин Брукс, Кит МакДермотт, Кэтлин Уиддоуз, Дэнни Коркилл, Шерил Джаннини, Дэвид Саймон
Описание: Фильм о женщине, работающей учительницей английского языка в Колумбийском Университете, у которой в один «прекрасный день» шестилетний сын исчезает с бруклинских улиц на коротком пути в школу. Ее муж бросил семью три месяца назад и переехал к какой-то девушке в Гринич-Виллидж. Но она держится с восхитительным самообладанием, даже когда копы и средства массовой информации врываются и практически заполняют весь ее дом, чтобы работать над делом. Следствие ведет группа во главе с Джаддом Хиршем, почти идеально отобранным для роли усталого, постоянно перерабатывающего детектива.
Сэмпл: http://multi-up.com/1076983
Тип релиза: HDTV 1080i
Контейнер: TS
Видео: AVC, 1920x1080 (16:9), 25.000 fps, 6 870 Kbps (0.133 bit/pixel)
Аудио: MP2, 48.0 KHz, 2 ch, 192 Kbps, CBR (Russian)
MediaInfo
Общее
Идентификатор : 1 (0x1)
Полное имя : K:\Без следа.ts
Формат : MPEG-TS
Размер файла : 5,91 Гбайт
Продолжительность : 1 ч. 53 м.
Режим общего битрейта : Переменный
Общий поток : 7431 Кбит/сек
Максимальный общий битрейт : 35,5 Мбит/сек
Видео
Идентификатор : 4113 (0x1011)
Идентификатор меню : 1 (0x1)
Формат : AVC
Формат/Информация : Advanced Video Codec
Профиль формата : Main@L4
Параметр CABAC формата : Да
Параметр ReFrames формата : 3 кадра
Параметр GOP формата : M=4, N=28
Идентификатор кодека : 27
Продолжительность : 1 ч. 53 м.
Битрейт : 6870 Кбит/сек
Ширина : 1920 пикселей
Высота : 1080 пикселей
Соотношение сторон : 16:9
Частота кадров : 25,000 кадров/сек
Стандарт вещания : Component
Цветовое пространство : YUV
Субдискретизация насыщенности : 4:2:0
Битовая глубина : 8 бит
Тип развёртки : Чересстрочная
Порядок развёртки : Верхнее поле первое
Бит/(Пиксели*Кадры) : 0.133
Размер потока : 5,46 Гбайт (92%)
Цветовой диапазон : Limited
Основные цвета : BT.709
Характеристики трансфера : BT.709
Коэффициенты матрицы : BT.709
Аудио
Идентификатор : 4352 (0x1100)
Идентификатор меню : 1 (0x1)
Формат : MPEG Audio
Версия формата : Version 1
Профиль формата : Layer 2
Идентификатор кодека : 4
Продолжительность : 1 ч. 53 м.
Вид битрейта : Постоянный
Битрейт : 192 Кбит/сек
Каналы : 2 канала
Частота : 48,0 КГц
Метод сжатия : С потерями
Размер потока : 156 Мбайт (3%)
Язык : Russian
Скриншоты
Скачать

Скачать торрент!

Как скачивать? · Что такое торрент? · Рейтинг и ограничения

Сайт не распространяет и не хранит электронные версии произведений, а лишь предоставляет доступ к создаваемому пользователями каталогу ссылок на торрент-файлы, которые содержат только списки хеш-сумм

[Профиль] [ЛС]
Показать сообщения:    
Ответить на тему

Текущее время: Сегодня 08:12

Часовой пояс: GMT + 4



Вы не можете начинать темы
Вы не можете отвечать на сообщения
Вы не можете редактировать свои сообщения
Вы не можете удалять свои сообщения
Вы не можете голосовать в опросах
Вы не можете прикреплять файлы к сообщениям
Вы не можете скачивать файлы