Не кричи "Волки!" / Не зови волков / Never Cry Wolf (Кэррол Бэллард /Carroll Ballard) [1983, США, драма, приключения, WEB-DL 1080p] Dub + Sub Rus, Eng + Original Eng

Ответить на тему
 
Автор Сообщение

user ®

Стаж: 7 лет 7 месяцев

Сообщений: 20008

Пост Пост: #1 от 02-Дек-2015 02:48

[Цитировать]

Не кричи "Волки!" / Не зови волков / Never Cry Wolf
Страна: США
Студия: Amarok Productions Ltd., Walt Disney Pictures
Жанр: драма, приключения
Год выпуска: 1983
Продолжительность: 01:45:25
Перевод: Профессиональный (дублированный) СВ-Дубль, ВГТРК, 1995 год
Cубтитры: русские (Val21), английские
Оригинальная аудиодорожка: английский
Режиссер: Кэррол Бэллард /Carroll Ballard
В ролях: Чарльз Мартин Смит, Брайан Деннехи, Захари Иттимангнак, Самсон Джора, Хью Уэбстер, Марта Иттимангнак, Том Дальгрен, Уолкер Стюарт
Описание: Фантастической красоты виды предстают зрителям этого фильма об ученом, который отправился на крайний север изучать повадки диких волков. Здесь есть смешное, много опасного, но главное — это величие природы, на фоне которого происходит перерождение человека.
Кинопоиск
Sample
Тип релиза: WEB-DL 1080p
Контейнер: MKV
Видео: MPEG4 AVC Video, H264, 16:9, 1920x1036, 23.976 fps, 5193 kbps
Аудио: Russian (AC3, 2 ch, 192 kbps, 16 bits, 48.0 KHz) - СВ-Дубль
Аудио 2: English (AC3, 6 ch, 384 kbps, 16 bits, 48.0 KHz) - оригинал
Формат субтитров: softsub (SRT)

MediaInfo
General
Unique ID : 199839428586938952177495402506803507265 (0x9657AC888B0731348934C0F320007041)
Complete name : K:\Never Cry Wolf 1983 WEB-DL 1080p.mkv
Format : Matroska
Format version : Version 4 / Version 2
File size : 4.33 GiB
Duration : 1h 45mn
Overall bit rate : 5 886 Kbps
Encoded date : UTC 2015-11-27 10:57:22
Writing application : mkvmerge v6.1.0 ('Old Devil') built on Mar 2 2013 14:32:37
Writing library : libebml v1.3.0 + libmatroska v1.4.0
Video
ID : 1
Format : AVC
Format/Info : Advanced Video Codec
Format profile : High@L4.0
Format settings, CABAC : Yes
Format settings, ReFrames : 4 frames
Codec ID : V_MPEG4/ISO/AVC
Duration : 1h 45mn
Bit rate : 5 193 Kbps
Width : 1 920 pixels
Height : 1 036 pixels
Display aspect ratio : 1.85:1
Frame rate mode : Constant
Frame rate : 23.976 fps
Color space : YUV
Chroma subsampling : 4:2:0
Bit depth : 8 bits
Scan type : Progressive
Bits/(Pixel*Frame) : 0.109
Stream size : 3.82 GiB (88%)
Language : English
Default : Yes
Forced : No
Color primaries : BT.709
Transfer characteristics : BT.709
Matrix coefficients : BT.709
Audio #1
ID : 2
Format : AC-3
Format/Info : Audio Coding 3
Mode extension : CM (complete main)
Format settings, Endianness : Big
Codec ID : A_AC3
Duration : 1h 45mn
Bit rate mode : Constant
Bit rate : 192 Kbps
Channel count : 2 channels
Channel positions : Front: L R
Sampling rate : 48.0 KHz
Bit depth : 16 bits
Compression mode : Lossy
Stream size : 145 MiB (3%)
Language : Russian
Default : Yes
Forced : No
Audio #2
ID : 3
Format : AC-3
Format/Info : Audio Coding 3
Mode extension : CM (complete main)
Format settings, Endianness : Big
Codec ID : A_AC3
Duration : 1h 45mn
Bit rate mode : Constant
Bit rate : 384 Kbps
Channel count : 6 channels
Channel positions : Front: L C R, Side: L R, LFE
Sampling rate : 48.0 KHz
Bit depth : 16 bits
Compression mode : Lossy
Stream size : 290 MiB (7%)
Language : English
Default : No
Forced : No
Text #1
ID : 4
Format : UTF-8
Codec ID : S_TEXT/UTF8
Codec ID/Info : UTF-8 Plain Text
Language : Russian
Default : No
Forced : No
Text #2
ID : 5
Format : UTF-8
Codec ID : S_TEXT/UTF8
Codec ID/Info : UTF-8 Plain Text
Language : English
Default : No
Forced : No
Menu
00:00:00.000 : en:MAIN TITLE
00:15:57.000 : en:THE ARRIVAL
00:25:28.000 : en:NEW NEIGHBOR
00:34:22.000 : en:IN PURSUIT OF PHANTOMS
00:43:38.000 : en:GEORGE AND ANGELINE
00:53:27.000 : en:COMPANY
01:11:02.000 : en:FEEL WONDER
01:18:23.000 : en:NAKED PREY
01:26:20.000 : en:HUNTING PARTY
01:36:40.000 : en:SURVIVAL OF THE FITTEST
01:39:04.000 : en:TURNING AWAY
01:43:03.000 : en:END CREDITS
Скриншоты
Скачать

Скачать торрент!

Как скачивать? · Что такое торрент? · Рейтинг и ограничения

Сайт не распространяет и не хранит электронные версии произведений, а лишь предоставляет доступ к создаваемому пользователями каталогу ссылок на торрент-файлы, которые содержат только списки хеш-сумм

[Профиль] [ЛС]
Показать сообщения:    
Ответить на тему

Текущее время: Сегодня 21:20

Часовой пояс: GMT + 4



Вы не можете начинать темы
Вы не можете отвечать на сообщения
Вы не можете редактировать свои сообщения
Вы не можете удалять свои сообщения
Вы не можете голосовать в опросах
Вы не можете прикреплять файлы к сообщениям
Вы не можете скачивать файлы