Напролом / The Hard Way (Джон Бэдэм / John Badham) [1991, США, боевик, комедия, криминал, BDRip 720p] Dub (EUR) + 4x MVO (1 Канал, Неоклассика, СТС, ОРТ) + 2x DVO (Премьер, Ульпаней Элром) + 2x AVO + 2x VO + Original Eng + Sub Rus, Eng

Ответить на тему
 
Автор Сообщение

user ®

Стаж: 7 лет 7 месяцев

Сообщений: 20008

Пост Пост: #1 от 02-Дек-2015 02:48

[Цитировать]

Напролом / The Hard Way
«Наши стволы без дела не болтаются!»
Год выпуска: 1991
Страна: США
Производство: The Badham-Cohen Group, Universal Pictures
Жанр: Боевик, комедия, криминал
Продолжительность: 01:50:44
Перевод 1: Профессиональный (дублированный) | EUR
Перевод 2: Профессиональный (многоголосый закадровый) | 1 Канал
Перевод 3: Профессиональный (двухголосый закадровый) | Премьер
Перевод 4: Профессиональный (многоголосый закадровый) | Неоклассика
Перевод 5: Профессиональный (многоголосый закадровый) | СТС
Перевод 6: Профессиональный (многоголосый закадровый) | ОРТ
Перевод 7: Профессиональный (двухголосый закадровый) | Ульпаней Элром
Перевод 8: Авторский (одноголосый закадровый) | Горчаков
Перевод 9: Авторский (одноголосый закадровый) | Дохалов
Перевод 10: Одноголосый закадровый | Жучков
Перевод 11: Одноголосый закадровый | Paul Bunyan (с ненормативной лексикой)
Оригинальная аудиодорожка: Английский
Субтитры: Русские, английские
Режиссёр: Джон Бэдэм
В ролях: Майкл Дж. Фокс, Джеймс Вудс, Стивен Лэнг, Аннабелла Шиорра, Джон Каподиче, Луис Гусман, ЭлЭл Кул Джей, Мэри Мара, Делрой Линдо, Конрад Робертс и др.
Описание: Ник Лэнг — знаменитая голливудская звезда. У Ника есть лишь одна мечта — расстаться со своим имиджем «славного парня» и сыграть настоящего «крутого» героя. И тут, как раз кстати, возникает возможность исполнить роль отважного детектива. Чтобы как можно лучше узнать о своём новом персонаже, Лэнг отправляется в Нью-Йорк, где знакомится с бывалым сыщиком Джоном Моссом, который должен помочь ему освоить полицейские приёмы. Странная парочка отправляется на поиски самого настоящего серийного убийцы, терроризирующего весь город...


SbR
Сэмпл
Качество: BDRip 720p
Формат: MKV
Видео: MPEG-4 AVC: ~9494 kbps / 1280x544 / 23.976 fps / 2.35:1
Аудио: Russian: DTS / 2.0 / 48 kHz / 768 kbps / 24-bit | EUR
Аудио: Russian: AC3 / 2.0 / 48 kHz / 192 kbps | 1 Канал
Аудио: Russian: AC3 / 2.0 / 48 kHz / 192 kbps | Премьер
Аудио: Russian: AC3 / 2.0 / 48 kHz / 192 kbps | Неоклассика
Аудио: Russian: AC3 / 2.0 / 48 kHz / 192 kbps | СТС
Аудио: Russian: AC3 / 2.0 / 48 kHz / 192 kbps | ОРТ
Аудио: Russian: AC3 / 2.0 / 48 kHz / 192 kbps | Ульпаней Элром
Аудио: Russian: AC3 / 2.0 / 48 kHz / 192 kbps | Горчаков
Аудио: Russian: AC3 / 2.0 / 48 kHz / 192 kbps | Дохалов
Аудио: Russian: AC3 / 2.0 / 48 kHz / 192 kbps | Жучков
Аудио: Russian: AC3 / 2.0 / 48 kHz / 320 kbps | Paul Bunyan
Аудио: English: FLAC / 2.0 / 48 kHz / 682 kbps | Оригинальный
MediaInfoXP
GeneralUnique ID : 245625919259160596633065072423367140550 (0xB8C9D4D0334CFADDB175E5B2823CE4C6)Complete name : F:\The.Hard.Way.1991.720p.BluRay.11xRus.Eng.x264-SbR.mkvFormat : MatroskaFormat version : Version 4 / Version 2File size : 10.1 GiBDuration : 1h 50mnOverall bit rate mode : VariableOverall bit rate : 13.0 MbpsEncoded date : UTC 2015-11-27 09:32:59Writing application : mkvmerge v8.3.0 ('Over the Horizon') 64bitWriting library : libebml v1.3.1 + libmatroska v1.4.2Attachements : cover.jpgDURATION : 01:48:12.151000000NUMBER_OF_FRAMES : 2247NUMBER_OF_BYTES : 70390_STATISTICS_WRITING_APP : mkvmerge v8.3.0 ('Over the Horizon') 64bit_STATISTICS_WRITING_DATE_UTC : 2015-11-27 09:32:59_STATISTICS_TAGS : BPS DURATION NUMBER_OF_FRAMES NUMBER_OF_BYTES
VideoID : 1Format : AVCFormat/Info : Advanced Video CodecFormat profile : High@L4.1Format settings, CABAC : YesFormat settings, ReFrames : 12 framesCodec ID : V_MPEG4/ISO/AVCDuration : 1h 50mnNominal bit rate : 9 500 KbpsWidth : 1 280 pixelsHeight : 544 pixelsDisplay aspect ratio : 2.35:1Frame rate mode : ConstantFrame rate : 23.976 fpsColor space : YUVChroma subsampling : 4:2:0Bit depth : 8 bitsScan type : ProgressiveBits/(Pixel*Frame) : 0.569Writing library : x264 core 148 r2638+53 bb29004 t_mod_Custom [8-bit@all X86_64]Encoding settings : cabac=1 / ref=12 / deblock=1:-3:-3 / analyse=0x3:0x133 / me=esa / subme=10 / psy=1 / fade_compensate=0.00 / psy_rd=1.10:0.05 / mixed_ref=1 / me_range=24 / chroma_me=1 / trellis=2 / 8x8dct=1 / cqm=0 / deadzone=21,11 / fast_pskip=0 / chroma_qp_offset=-3 / threads=6 / lookahead_threads=1 / sliced_threads=0 / nr=0 / decimate=1 / interlaced=0 / bluray_compat=0 / constrained_intra=0 / fgo=0 / bframes=11 / b_pyramid=2 / b_adapt=2 / b_bias=0 / direct=3 / weightb=1 / open_gop=0 / weightp=2 / keyint=250 / keyint_min=23 / scenecut=40 / intra_refresh=0 / rc=2pass / mbtree=0 / bitrate=9500 / ratetol=1.0 / qcomp=0.70 / qpmin=0:0:0 / qpmax=69:69:69 / qpstep=4 / cplxblur=20.0 / qblur=0.5 / ip_ratio=1.30 / pb_ratio=1.20 / aq=1:0.65 / aq-sensitivity=10.00 / aq-factor=1.00:1.00:1.00 / aq2=0 / aq3=0Language : EnglishDefault : YesForced : NoColor range : LimitedMatrix coefficients : BT.709DURATION : 01:50:44.054000000NUMBER_OF_FRAMES : 159298NUMBER_OF_BYTES : 7885243249_STATISTICS_WRITING_APP : mkvmerge v8.3.0 ('Over the Horizon') 64bit_STATISTICS_WRITING_DATE_UTC : 2015-11-27 09:32:59_STATISTICS_TAGS : BPS DURATION NUMBER_OF_FRAMES NUMBER_OF_BYTES
Audio #1ID : 2Format : DTSFormat/Info : Digital Theater SystemsMode : 16Format settings, Endianness : BigCodec ID : A_DTSDuration : 1h 50mnBit rate mode : ConstantBit rate : 768 KbpsChannel(s) : 2 channelsChannel positions : Front: L RSampling rate : 48.0 KHzBit depth : 24 bitsCompression mode : LossyStream size : 608 MiB (6%)Title : ДубляжLanguage : RussianDefault : YesForced : No
Audio #2ID : 3Format : AC-3Format/Info : Audio Coding 3Mode extension : CM (complete main)Format settings, Endianness : BigCodec ID : A_AC3Duration : 1h 50mnBit rate mode : ConstantBit rate : 192 KbpsChannel(s) : 2 channelsChannel positions : Front: L RSampling rate : 48.0 KHzCompression mode : LossyStream size : 152 MiB (1%)Title : многоголосый, 1 каналLanguage : RussianDefault : NoForced : No
Audio #3ID : 4Format : AC-3Format/Info : Audio Coding 3Mode extension : CM (complete main)Format settings, Endianness : BigCodec ID : A_AC3Duration : 1h 50mnBit rate mode : ConstantBit rate : 192 KbpsChannel(s) : 2 channelsChannel positions : Front: L RSampling rate : 48.0 KHzCompression mode : LossyStream size : 152 MiB (1%)Title : двухголосый, ПремьерLanguage : RussianDefault : NoForced : No
Audio #4ID : 5Format : AC-3Format/Info : Audio Coding 3Format profile : Dolby DigitalMode extension : CM (complete main)Format settings, Endianness : BigCodec ID : A_AC3Duration : 1h 50mnBit rate mode : ConstantBit rate : 192 KbpsChannel(s) : 2 channelsChannel positions : Front: L RSampling rate : 48.0 KHzCompression mode : LossyStream size : 152 MiB (1%)Title : многоголосый закадровый,NeoklassikaLanguage : RussianDefault : NoForced : No
Audio #5ID : 6Format : AC-3Format/Info : Audio Coding 3Mode extension : CM (complete main)Format settings, Endianness : BigCodec ID : A_AC3Duration : 1h 50mnBit rate mode : ConstantBit rate : 192 KbpsChannel(s) : 2 channelsChannel positions : Front: L RSampling rate : 48.0 KHzCompression mode : LossyStream size : 152 MiB (1%)Title : многоголосый, CTCLanguage : RussianDefault : NoForced : No
Audio #6ID : 7Format : AC-3Format/Info : Audio Coding 3Mode extension : CM (complete main)Format settings, Endianness : BigCodec ID : A_AC3Duration : 1h 50mnBit rate mode : ConstantBit rate : 192 KbpsChannel(s) : 2 channelsChannel positions : Front: L RSampling rate : 48.0 KHzCompression mode : LossyStream size : 152 MiB (1%)Title : многоголосый, ОРТLanguage : RussianDefault : NoForced : No
Audio #7ID : 8Format : AC-3Format/Info : Audio Coding 3Mode extension : CM (complete main)Format settings, Endianness : BigCodec ID : A_AC3Duration : 1h 50mnBit rate mode : ConstantBit rate : 192 KbpsChannel(s) : 2 channelsChannel positions : Front: L RSampling rate : 48.0 KHzCompression mode : LossyStream size : 152 MiB (1%)Title : двухголосый, студия Ульпаней ЭлромLanguage : RussianDefault : NoForced : No
Audio #8ID : 9Format : AC-3Format/Info : Audio Coding 3Mode extension : CM (complete main)Format settings, Endianness : BigCodec ID : A_AC3Duration : 1h 50mnBit rate mode : ConstantBit rate : 192 KbpsChannel(s) : 2 channelsChannel positions : Front: L RSampling rate : 48.0 KHzCompression mode : LossyStream size : 152 MiB (1%)Title : авторский, Василий ГорчаковLanguage : RussianDefault : NoForced : No
Audio #9ID : 10Format : AC-3Format/Info : Audio Coding 3Mode extension : CM (complete main)Format settings, Endianness : BigCodec ID : A_AC3Duration : 1h 50mnBit rate mode : ConstantBit rate : 192 KbpsChannel(s) : 2 channelsChannel positions : Front: L RSampling rate : 48.0 KHzCompression mode : LossyStream size : 152 MiB (1%)Title : авторский, Вартан ДохаловLanguage : RussianDefault : NoForced : No
Audio #10ID : 11Format : AC-3Format/Info : Audio Coding 3Mode extension : CM (complete main)Format settings, Endianness : BigCodec ID : A_AC3Duration : 1h 50mnBit rate mode : ConstantBit rate : 192 KbpsChannel(s) : 2 channelsChannel positions : Front: L RSampling rate : 48.0 KHzCompression mode : LossyStream size : 152 MiB (1%)Title : одноголосый,ЖучковLanguage : RussianDefault : NoForced : No
Audio #11ID : 12Format : AC-3Format/Info : Audio Coding 3Mode extension : CM (complete main)Format settings, Endianness : BigCodec ID : A_AC3Duration : 1h 50mnBit rate mode : ConstantBit rate : 320 KbpsChannel(s) : 2 channelsChannel positions : Front: L RSampling rate : 48.0 KHzCompression mode : LossyStream size : 253 MiB (2%)Title : одноголосый,Paul Bunyan, ненормативная лексикаLanguage : RussianDefault : NoForced : No
Audio #12ID : 13Format : FLACFormat/Info : Free Lossless Audio CodecCodec ID : A_FLACDuration : 1h 50mnBit rate mode : VariableChannel(s) : 2 channelsSampling rate : 48.0 KHzBit depth : 16 bitsTitle : 682 KbpsWriting library : libFLAC 1.2.1 (UTC 2007-09-17)Language : EnglishDefault : NoForced : No
Text #1ID : 14Format : UTF-8Codec ID : S_TEXT/UTF8Codec ID/Info : UTF-8 Plain TextTitle : forcedLanguage : RussianDefault : YesForced : No
Text #2ID : 15Format : UTF-8Codec ID : S_TEXT/UTF8Codec ID/Info : UTF-8 Plain TextLanguage : RussianDefault : NoForced : No
Text #3ID : 16Format : UTF-8Codec ID : S_TEXT/UTF8Codec ID/Info : UTF-8 Plain TextLanguage : EnglishDefault : NoForced : No
Text #4ID : 17Format : UTF-8Codec ID : S_TEXT/UTF8Codec ID/Info : UTF-8 Plain TextTitle : SDHLanguage : EnglishDefault : NoForced : No
Menu00:00:00.000 : en:00:00:00.00000:11:02.161 : en:00:11:02.16100:16:26.736 : en:00:16:26.73600:28:26.496 : en:00:28:26.49600:39:46.092 : en:00:39:46.09200:49:03.107 : en:00:49:03.10700:55:49.054 : en:00:55:49.05401:05:23.837 : en:01:05:23.83701:10:38.484 : en:01:10:38.48401:19:40.693 : en:01:19:40.69301:25:19.072 : en:01:25:19.07201:30:45.315 : en:01:30:45.31501:33:30.772 : en:01:33:30.77201:38:31.697 : en:01:38:31.69701:45:44.797 : en:01:45:44.79701:47:17.014 : en:01:47:17.014
Скриншот с названием фильма Скриншоты
Скачать

Скачать торрент!

Как скачивать? · Что такое торрент? · Рейтинг и ограничения

Сайт не распространяет и не хранит электронные версии произведений, а лишь предоставляет доступ к создаваемому пользователями каталогу ссылок на торрент-файлы, которые содержат только списки хеш-сумм

[Профиль] [ЛС]
Показать сообщения:    
Ответить на тему

Текущее время: Сегодня 13:36

Часовой пояс: GMT + 4



Вы не можете начинать темы
Вы не можете отвечать на сообщения
Вы не можете редактировать свои сообщения
Вы не можете удалять свои сообщения
Вы не можете голосовать в опросах
Вы не можете прикреплять файлы к сообщениям
Вы не можете скачивать файлы