Как заработать 20 миллионов баксов / The First $20 Million Is Always the Hardest (Мик Джексон / Mick Jackson) [2002, США, комедия, HDTV 1080i] Dub (SDI Media)

Ответить на тему
 
Автор Сообщение

user ®

Стаж: 7 лет 7 месяцев

Сообщений: 20008

Пост Пост: #1 от 02-Дек-2015 02:48

[Цитировать]

Как заработать 20 миллионов баксов / The First $20 Million Is Always the Hardest
Страна: США
Жанр: комедия
Год выпуска: 2002
Продолжительность: 01:40:16
Перевод: Профессиональный (дублированный) SDI Media
Cубтитры: нет
Оригинальная аудиодорожка: нет
Режиссер: Мик Джексон
В ролях: Адам Гарсия, Розарио Доусон, Джейк Бьюзи, Энрико Колантони, Итан Сапли, Анжул Нигам, Грегори Джбара, Дэн Батлер, Линда Харт, Шива Роуз
Описание: В сфере высоких технологий переполох — создан уникальный компьютер. Монитора нет, клавиатуры нет. Выглядит очень странно, но стоит совсем недорого и, главное, работает. Транснациональные корпорации в панике.
А виноват во всем Энди, который бросил свою удачную карьеру и вместе с командой — тремя своеобразными и психически неуравновешенными программистами создает это чудо техники. Но ожидаемая куча баксов уползает буквально из-под носа — конкуренты не дремлют и пытаются любым способом заполучить этот лакомый кусочек.
Доп. информация: В раздаче две русские дублированные дорожки, какая лучше по качеству определить не могу, поэтому решил оставить обе как и вещалось.
Сэмпл: http://multi-up.com/1077302
Тип релиза: HDTV 1080i
Контейнер: TS
Видео: H264, 1920x1080, 16:9, 7 939 Kbps, 25fps
Аудио 1: MP2, stereo, 48000 Hz, 192 kb/s
Аудио 2: AC3, stereo, 48000 Hz, 192 kb/s
MediaInfo
General
ID : 1 (0x1)
Complete name : D:\Kak zarabotat' 20 millionov baksov.ts
Format : MPEG-TS
File size : 6.13 GiB
Duration : 1h 40mn
Overall bit rate mode : Variable
Overall bit rate : 8 760 Kbps
Video
ID : 303 (0x12F)
Menu ID : 1 (0x1)
Format : AVC
Format/Info : Advanced Video Codec
Format profile : Main@L4
Format settings, CABAC : Yes
Format settings, ReFrames : 4 frames
Codec ID : 27
Duration : 1h 40mn
Bit rate : 7 939 Kbps
Width : 1 920 pixels
Height : 1 080 pixels
Display aspect ratio : 16:9
Frame rate : 25.000 fps
Standard : Component
Color space : YUV
Chroma subsampling : 4:2:0
Bit depth : 8 bits
Scan type : Interlaced
Scan order : Top Field First
Bits/(Pixel*Frame) : 0.153
Stream size : 5.56 GiB (91%)
Color range : Limited
Color primaries : BT.709
Transfer characteristics : BT.709
Matrix coefficients : BT.709
Audio #1
ID : 403 (0x193)
Menu ID : 1 (0x1)
Format : MPEG Audio
Format version : Version 1
Format profile : Layer 2
Codec ID : 3
Duration : 1h 40mn
Bit rate mode : Constant
Bit rate : 192 Kbps
Channel(s) : 2 channels
Sampling rate : 48.0 KHz
Compression mode : Lossy
Stream size : 138 MiB (2%)
Language : Russian
Audio #2
ID : 423 (0x1A7)
Menu ID : 1 (0x1)
Format : AC-3
Format/Info : Audio Coding 3
Mode extension : CM (complete main)
Format settings, Endianness : Big
Codec ID : 6
Duration : 1h 40mn
Bit rate mode : Constant
Bit rate : 192 Kbps
Channel(s) : 2 channels
Channel positions : Front: L R
Sampling rate : 48.0 KHz
Compression mode : Lossy
Stream size : 138 MiB (2%)
Language : Russian
Скриншоты
Скачать

Скачать торрент!

Как скачивать? · Что такое торрент? · Рейтинг и ограничения

Сайт не распространяет и не хранит электронные версии произведений, а лишь предоставляет доступ к создаваемому пользователями каталогу ссылок на торрент-файлы, которые содержат только списки хеш-сумм

[Профиль] [ЛС]
Показать сообщения:    
Ответить на тему

Текущее время: Сегодня 10:07

Часовой пояс: GMT + 4



Вы не можете начинать темы
Вы не можете отвечать на сообщения
Вы не можете редактировать свои сообщения
Вы не можете удалять свои сообщения
Вы не можете голосовать в опросах
Вы не можете прикреплять файлы к сообщениям
Вы не можете скачивать файлы