Дотянуться до тебя / От меня к тебе / Reaching you / Kimi ni Todoke (Кумадзава Наото / Kumazawa Naoto) [2010, Япония, романтика, школа, комедия, HDRip-AVC] DVO (Jam & Eladiel) + Original Jap + Sub (Rus, Eng)

Ответить на тему
 
Автор Сообщение

user ®

Стаж: 13 лет

Сообщений: 15071

Пост Пост: #1 от 30-Ноя-2015 13:39

[Цитировать]

Дотянуться до тебя | 君に届け
Reaching you | Kimi ni Todoke
- -Страна: Япония
Жанр: романтика, школа, комедия
Год выпуска: 2010
Продолжительность: 02:08:34-Перевод:
  • любительский (двухголосый закадровый) (Jam & Eladiel) [Jam Club]-Оригинальная аудиодорожка: японская (Japan)-Субтитры:
  • русские (Tiris & Annyti)
  • английские (автор неизвестен; возможно, yuizaki_libra)-Режиссер: Кумадзава Наото / Kumazawa Naoto-В ролях: Табэ Микако (Tabe Mikako) – Куронума Савако, Миура Харума (Miura Haruma) – Сёта Казэхая, Рэнбуцу Мисако (Renbutsu Misako) – Йошида Чизуру, Ватанабэ Тацуна (Watanabe Natsuna) – Яно Аяне, Киритани Мирэй (Kiritani Mirei) – Курумидзава Уме, Аояма Хару (Aoyama Haru) – Санада Рю, Кацумура Масанобу (Katsumura Masanobu) – Пин-Описание:
    Live Action адаптация одноимённых манги и аниме.
    «До чего же самовосприятие может отличаться от мнения окружающих! 15-летняя Савако Куронума – милая и мягкая девушка, желающая людям только добра. Но судьба и родители наградили ее внешностью героини пресловутого «Звонка», и одноклассники считают, что даже столкнуться с «Садако» - дурная примета, а стоит заговорить с ней - будешь проклят навеки. Скромность и застенчивость Савако тоже делу не помогают. Так бы и пропала девушка в старшей школе, если бы не Сёта Кадзэхая – всеобщий любимец, простой и открытый парень. Он первым начал разговаривать с Савако, которая, конечно же, давно питала к нему сильное чувство. За Кадзэхаей понемногу последовала вся его компания, и вот бывшей «золушке» уже волей-неволей пришлось тянуться за ними и открываться людям, при этом демонстрируя неожиданные таланты, вовсе не те, на которые намекали досужие сплетницы.» © Hollow, World Art--Раздача от: -Тип релиза: [url=http://***/forum/viewtopic.php?t=4740220]HDRip-AVC[/url] [url=http://***/forum/profile.php?mode=viewprofile&u=13569896]@ Kirino[/url] | Sample
    Контейнер: MKV
    Видео: AVC (x264), 912x496 at 23,976 fps, 1270 Кbps
    Аудио 1: AC3; 128 Kbps; CBR; 2 ch; 44,1 khz | Jam & Eladiel [Jam Club] |
    Аудио 2: AC3; 192 Kbps; CBR; 2 ch; 48 khz | Original - Japanese |
    Формат субтитров: .srt , .ass-Скриншоты

-
MediaInfo
Format                      : Matroska
Format version              : Version 4 / Version 2
File size                   : 1.43 GiB
Duration                    : 2h 8mn
Overall bit rate            : 1 592 Kbps
Encoded date                : UTC 2015-11-28 13:35:06
Writing application         : mkvmerge v8.5.2 ('Crosses') 64bit
Writing library             : libebml v1.3.3 + libmatroska v1.4.4
Attachements                : LIDSTFCE.TTF / RuzickaTypeK.ttf / leelawad.ttf
DURATION                    : 02:07:28.660000000
NUMBER_OF_FRAMES            : 1471
NUMBER_OF_BYTES             : 92903
_STATISTICS_WRITING_APP     : mkvmerge v8.5.2 ('Crosses') 64bit
_STATISTICS_WRITING_DATE_UT : 2015-11-28 13:35:06
_STATISTICS_TAGS            : BPS DURATION NUMBER_OF_FRAMES NUMBER_OF_BYTES
Video
ID                          : 1
Format                      : AVC
Format/Info                 : Advanced Video Codec
Format profile              : High@L4.1
Format settings, CABAC      : Yes
Format settings, ReFrames   : 13 frames
Codec ID                    : V_MPEG4/ISO/AVC
Duration                    : 2h 8mn
Bit rate                    : 1 270 Kbps
Width                       : 912 pixels
Height                      : 496 pixels
Display aspect ratio        : 1.85:1
Frame rate mode             : Constant
Frame rate                  : 23.976 fps
Color space                 : YUV
Chroma subsampling          : 4:2:0
Bit depth                   : 8 bits
Scan type                   : Progressive
Bits/(Pixel*Frame)          : 0.117
Stream size                 : 1.11 GiB (78%)
Title                       : Kirino
Writing library             : x264 core 146 r2538 121396c
Encoding settings           : cabac=1 / ref=13 / deblock=1:-2:-2 / analyse=0x3:0x113 / me=umh / subme=10 / psy=1 / psy_rd=1.00:0.15 / mixed_ref=1 / me_range=32 / chroma_me=1 / trellis=2 / 8x8dct=1 / cqm=0 / deadzone=21,11 / fast_pskip=0 / chroma_qp_offset=-3 / threads=6 / lookahead_threads=1 / sliced_threads=0 / nr=0 / decimate=1 / interlaced=0 / bluray_compat=0 / constrained_intra=0 / bframes=16 / b_pyramid=2 / b_adapt=2 / b_bias=0 / direct=1 / weightb=1 / open_gop=0 / weightp=2 / keyint=240 / keyint_min=23 / scenecut=40 / intra_refresh=0 / rc_lookahead=40 / rc=2pass / mbtree=0 / bitrate=1270 / ratetol=1.0 / qcomp=0.60 / qpmin=10 / qpmax=51 / qpstep=4 / cplxblur=20.0 / qblur=0.5 / vbv_maxrate=50000 / vbv_bufsize=62500 / nal_hrd=none / filler=0 / ip_ratio=1.40 / pb_ratio=1.30 / aq=1:1.00
Language                    : Japanese
Default                     : Yes
Forced                      : No
Audio #1
ID                          : 2
Format                      : AC-3
Format/Info                 : Audio Coding 3
Mode extension              : CM (complete main)
Format settings, Endianness : Big
Codec ID                    : A_AC3
Duration                    : 2h 8mn
Bit rate mode               : Constant
Bit rate                    : 128 Kbps
Channel(s)                  : 2 channels
Channel positions           : Front: L R
Sampling rate               : 44.1 KHz
Compression mode            : Lossy
Stream size                 : 118 MiB (8%)
Title                       : Jam & Eladiel [Jam Club]
Language                    : Russian
Default                     : Yes
Forced                      : No
Audio #2
ID                          : 3
Format                      : AC-3
Format/Info                 : Audio Coding 3
Mode extension              : CM (complete main)
Format settings, Endianness : Big
Codec ID                    : A_AC3
Duration                    : 2h 8mn
Bit rate mode               : Constant
Bit rate                    : 192 Kbps
Channel(s)                  : 2 channels
Channel positions           : Front: L R
Sampling rate               : 48.0 KHz
Compression mode            : Lossy
Stream size                 : 177 MiB (12%)
Language                    : Japanese
Default                     : No
Forced                      : No
Text #1
ID                          : 4
Format                      : UTF-8
Codec ID                    : S_TEXT/UTF8
Codec ID/Info               : UTF-8 Plain Text
Title                       : Tiris & Annyti
Language                    : Russian
Default                     : Yes
Forced                      : No
Text #2
ID                          : 5
Format                      : ASS
Codec ID                    : S_TEXT/ASS
Codec ID/Info               : Advanced Sub Station Alpha
Compression mode            : Lossless
Title                       : unknown (yuizaki_libra?)
Language                    : English
Default                     : No
Forced                      : No
Menu
00:00:00.000                : en:00:00:00.000
00:05:47.347                : en:00:05:47.347
00:09:48.004                : en:00:09:48.004
00:19:50.940                : en:00:19:50.940
00:21:32.666                : en:00:21:32.666
00:27:16.301                : en:00:27:16.301
00:34:46.751                : en:00:34:46.751
00:41:18.851                : en:00:41:18.851
00:49:01.689                : en:00:49:01.689
00:56:00.899                : en:00:56:00.899
01:04:09.429                : en:01:04:09.429
01:06:32.614                : en:01:06:32.614
01:12:54.996                : en:01:12:54.996
01:23:31.131                : en:01:23:31.131
01:34:46.931                : en:01:34:46.931
01:37:58.623                : en:01:37:58.623
01:44:16.333                : en:01:44:16.333
01:48:23.288                : en:01:48:23.288
02:03:45.668                : en:02:03:45.668
Скачать

Скачать торрент! Дотянуться до тебя / От меня к тебе / Reaching you / Kimi ni Todoke (Кумадзава Наото / Kumazawa Naoto) [2010, Япония, романтика, школа, комедия, HDRip-AVC] DVO (Jam & Eladiel) + Original Jap + Sub (Rus, Eng)

Как скачивать? · Что такое торрент? · Рейтинг и ограничения

Сайт не распространяет и не хранит электронные версии произведений, а лишь предоставляет доступ к создаваемому пользователями каталогу ссылок на торрент-файлы, которые содержат только списки хеш-сумм

[Профиль] [ЛС]
Показать сообщения:    
Ответить на тему

Текущее время: Сегодня 16:51

Часовой пояс: GMT + 4



Вы не можете начинать темы
Вы не можете отвечать на сообщения
Вы не можете редактировать свои сообщения
Вы не можете удалять свои сообщения
Вы не можете голосовать в опросах
Вы не можете прикреплять файлы к сообщениям
Вы не можете скачивать файлы