Якудза-апокалипсис: Великая война в преступном мире / Gokudou daisensou (Такаси Миике / Takashi Miike) [2015, Япония, Ужасы, Боевик, DVDRip] VO (Васька Куролесов)

Ответить на тему
 
Автор Сообщение

user ®

Стаж: 13 лет

Сообщений: 15071

Пост Пост: #1 от 29-Ноя-2015 00:27

[Цитировать]

Якудза-апокалипсис: Великая война в преступном мире / Gokudou daisensou
Страна: Япония
Жанр: Ужасы, Боевик
Год выпуска: 2015
Продолжительность: 01:55:08
Перевод: Одноголосый закадровый Васька Куролесов по субтитрам МЕГАПЫХАРЬ
Cубтитры: Японские (вшитые на английскую речь)
Оригинальная аудиодорожка: нет
Режиссер: Такаси Миике / Takashi Miike
В ролях: Яян Рухьян, Пьер Таки, Рири Фуранки, Мио Юки, Хаято Итихара, Денден, Тэцу Ватанабэ, Рико Наруми, Йошиюки Моришита, Шо Аояги
Описание: Безжалостный и непобедимый босс криминального мира Кэмюра оказывается вампиром. Однажды убийцы, знающие секрет, ставят его перед фактом: смерть или возвращение в бизнес международного синдиката. Якудза отказывается, и во время жестокого побоища его помощника Кагияму разрывают на куски. Чтобы спасти друга, умирающий Кэмюра кусает его. После превращения в вампира Кагияма жаждет отомстить за смерть босса.

Сэмпл: http://multi-up.com/1077065
Качество видео: DVDRip
Формат видео: AVI
Видео: XviD, 1633 Кбит/с, 720x304, 23.976 fps
Аудио: AC-3, 2 ch, 192 Кбит/с, 48.0 KHz Ненорматив!
Доп.Инфа: отдельное спасибо ngame, Симоннс, axytin, serjik1167 за помощь в создании проекта!
Релиз:
MediaInfo
General
Complete name : G:\Yakuza.Apocalypse.2015_KypoJIecoB.avi
Format : AVI
Format/Info : Audio Video Interleave
File size : 1.48 GiB
Duration : 1h 55mn
Overall bit rate : 1 834 Kbps
Video
ID : 0
Format : MPEG-4 Visual
Format profile : Advanced Simple@L5
Format settings, BVOP : 2
Format settings, QPel : No
Format settings, GMC : No warppoints
Format settings, Matrix : Default (H.263)
Codec ID : XVID
Codec ID/Hint : XviD
Duration : 1h 55mn
Bit rate : 1 633 Kbps
Width : 720 pixels
Height : 304 pixels
Display aspect ratio : 2.35:1
Frame rate : 23.976 fps
Color space : YUV
Chroma subsampling : 4:2:0
Bit depth : 8 bits
Scan type : Progressive
Compression mode : Lossy
Bits/(Pixel*Frame) : 0.311
Stream size : 1.31 GiB (89%)
Writing library : XviD 67
Audio
ID : 1
Format : AC-3
Format/Info : Audio Coding 3
Mode extension : CM (complete main)
Format settings, Endianness : Big
Codec ID : 2000
Duration : 1h 55mn
Bit rate mode : Constant
Bit rate : 192 Kbps
Channel(s) : 2 channels
Channel positions : Front: L R
Sampling rate : 48.0 KHz
Compression mode : Lossy
Stream size : 158 MiB (10%)
Alignment : Split accross interleaves
Interleave, duration : 42 ms (1.00 video frame)
Interleave, preload duratio : 500 ms
Скриншот c названием фильма Скриншоты
Скачать

Скачать торрент! Якудза-апокалипсис: Великая война в преступном мире / Gokudou daisensou (Такаси Миике / Takashi Miike) [2015, Япония, Ужасы, Боевик, DVDRip] VO (Васька Куролесов)

Как скачивать? · Что такое торрент? · Рейтинг и ограничения

Сайт не распространяет и не хранит электронные версии произведений, а лишь предоставляет доступ к создаваемому пользователями каталогу ссылок на торрент-файлы, которые содержат только списки хеш-сумм

[Профиль] [ЛС]
Показать сообщения:    
Ответить на тему

Текущее время: Сегодня 10:57

Часовой пояс: GMT + 4



Вы не можете начинать темы
Вы не можете отвечать на сообщения
Вы не можете редактировать свои сообщения
Вы не можете удалять свои сообщения
Вы не можете голосовать в опросах
Вы не можете прикреплять файлы к сообщениям
Вы не можете скачивать файлы