Чужие дети (Юрий Лейзеров) [2013, Россия, мелодрама, WEB-DLRip]

Ответить на тему
 
Автор Сообщение

user ®

Стаж: 7 лет 7 месяцев

Сообщений: 20008

Пост Пост: #1 от 28-Ноя-2015 15:09

[Цитировать]

Чужие детиСтрана: Россия, Кинокомпания Русское
Год выпуска: 2013
Жанр: мелодрама
Продолжительность: 01:32:00
Субтитры: нет-Режиссер: Юрий Лейзеров-В ролях: Анна Тараторкина, Виталий Кудрявцев, Татьяна Кречетова, Ксения Попович, Дмитрий Ячевский
--Описание: Успешный бизнесмен Сергей оставляет жену Лену и дочь Асю ради новой избранницы Наташи. Ася остро переживает развод родителей. На этой почве у нее появляются проблемы со здоровьем, которые она скрывает. Наташа рожает дочь Катю. Сергей счастлив и почти не вспоминает о первой семье. В какой-то момент состояние Аси становится критическим, ее увозят в больницу с подозрением на лейкоз. Чтобы спасти Асю, нужны донорские клетки, но клетки Лены и Сергея Асе почти не подходят. Врач предполагает, что донором могла бы стать маленькая Катя. Лена просит у Сергея и Наташи помощи. Получив отказ, бросается к некоему незнакомцу, который обещает помочь решить проблему. Сергею все-таки удается уговорить Наташу помочь Асе, но по дороге в больницу его жестоко избивают, а Катю похищают…--Сэмпл: http://sendfile.su/1178011
Качество видео: WEB-DLRip
Формат видео: AVI
Видео: XviD (1.2.2) 1000kbps 688x384 25.000fps
Аудио: MP3 128kbps 2ch 16bit 44100khz

MediaInfo
MediaInfoLib - v0.7.62
General
Complete name : F:\Мои раздачи 2\Чужие дети. 2015г. WEB-DLRip. - kontarik81.avi
Format : AVI
Format/Info : Audio Video Interleave
File size : 748 MiB
Duration : 1h 32mn
Overall bit rate : 1 137 Kbps
Writing application : VirtualDubMod 1.5.10.3 | www.virtualdub-fr.org || (build 2550/release)
Writing library : VirtualDubMod build 2550/release
Video
ID : 0
Format : MPEG-4 Visual
Format profile : Advanced Simple@L5
Format settings, BVOP : 1
Format settings, QPel : No
Format settings, GMC : No warppoints
Format settings, Matrix : Default (H.263)
Codec ID : XVID
Codec ID/Hint : XviD
Duration : 1h 32mn
Bit rate : 999 Kbps
Width : 688 pixels
Height : 384 pixels
Display aspect ratio : 16:9
Frame rate : 25.000 fps
Color space : YUV
Chroma subsampling : 4:2:0
Bit depth : 8 bits
Scan type : Progressive
Compression mode : Lossy
Bits/(Pixel*Frame) : 0.151
Stream size : 658 MiB (88%)
Writing library : XviD 1.2.1 (UTC 2008-12-04)
Audio
ID : 1
Format : MPEG Audio
Format version : Version 1
Format profile : Layer 3
Mode : Joint stereo
Mode extension : MS Stereo
Codec ID : 55
Codec ID/Hint : MP3
Duration : 1h 32mn
Bit rate mode : Constant
Bit rate : 128 Kbps
Channel(s) : 2 channels
Sampling rate : 44.1 KHz
Compression mode : Lossy
Stream size : 84.2 MiB (11%)
Alignment : Split accross interleaves
Interleave, duration : 40 ms (1.00 video frame)
Interleave, preload duration : 500 ms
Writing library : LAME3.99r
Encoding settings : -m j -V 4 -q 2 -lowpass 17 -b 128
Скриншот c названием фильма Скриншоты
Скачать

Скачать торрент!

Как скачивать? · Что такое торрент? · Рейтинг и ограничения

Сайт не распространяет и не хранит электронные версии произведений, а лишь предоставляет доступ к создаваемому пользователями каталогу ссылок на торрент-файлы, которые содержат только списки хеш-сумм

[Профиль] [ЛС]
Показать сообщения:    
Ответить на тему

Текущее время: Сегодня 08:40

Часовой пояс: GMT + 4



Вы не можете начинать темы
Вы не можете отвечать на сообщения
Вы не можете редактировать свои сообщения
Вы не можете удалять свои сообщения
Вы не можете голосовать в опросах
Вы не можете прикреплять файлы к сообщениям
Вы не можете скачивать файлы