Страшная воля богов / Kamisama no iu tôri / As the Gods Will (Такаси Миике / Takashi Miike) [2014, Япония, ужасы, триллер, HDRip] Dub

Ответить на тему
 
Автор Сообщение

user ®

Стаж: 13 лет

Сообщений: 15071

Пост Пост: #1 от 27-Ноя-2015 20:36

[Цитировать]

Страшная воля богов / Kamisama no iu tôri / As the Gods Will
Страна: Япония
Жанр: ужасы, триллер
Год выпуска: 2014
Продолжительность: 01:56:58
Перевод: Профессиональный (полное дублирование)
Оригинальная аудиодорожка: нет
Cубтитры: нет
Режиссер: Такаси Миике / Takashi Miike
В ролях: Сёта Сомэтани, Рюноскэ Камики, Рири Фуранки, Ацуко Маеда, Фукуси Сота, Хирона Ямадзаки, Дзинги Ириэ, Мио Юки, Нао Омори, Рена Шимура
Описание: Сун Такахата тяготится своей заурядной жизнью, пока однажды в его классе не начинают происходить странные вещи. Школьникам являются загадочные игрушки во главе с куклой Дарума - божеством, приносящим счастье. Загадочные посетители призывают ребят принять участие в играх, цена которым – жизнь. Они подбадривают сомневающихся, рисуя радужные перспективы. Однако в случае отказа от участия им грозит немедленная смерть...
Релиз:

Качество: HDRip
Контейнер: AVI
Видео: 688x288 (2.39:1), 23.976 fps, XviD build 64 ~746 kbps avg, 0.16 bit/pixel
Аудио: 48 kHz, MPEG Layer 3, 2 ch, ~128.00 kbps avg

MI
Общее
Полное имя : D:\Мои рипы\Страшная_воля_богов_HDRip_ Некул.avi
Формат : AVI
Формат/Информация : Audio Video Interleave
Размер файла : 743 Мбайт
Продолжительность : 1 ч. 56 м.
Общий поток : 888 Кбит/сек
Программа кодирования : Lavf56.25.101
Видео
Идентификатор : 0
Формат : MPEG-4 Visual
Профиль формата : Advanced Simple@L5
Параметр BVOP формата : 1
Параметр QPel формата : Нет
Параметр GMC формата : Без точки перехода
Параметр матрицы формата : Default (H.263)
Идентификатор кодека : XVID
Идентификатор кодека/Подсказка : XviD
Продолжительность : 1 ч. 56 м.
Битрейт : 747 Кбит/сек
Ширина : 688 пикселей
Высота : 288 пикселей
Соотношение сторон : 2,40:1
Частота кадров : 23,976 кадра/сек
Цветовое пространство : YUV
Субдискретизация насыщенности : 4:2:0
Битовая глубина : 8 бит
Тип развёртки : Прогрессивная
Метод сжатия : С потерями
Бит/(Пиксели*Кадры) : 0.157
Размер потока : 625 Мбайт (84%)
Библиотека кодирования : XviD 64
Аудио
Идентификатор : 1
Формат : MPEG Audio
Версия формата : Version 1
Профиль формата : Layer 3
Режим : Joint stereo
Идентификатор кодека : 55
Идентификатор кодека/Подсказка : MP3
Продолжительность : 1 ч. 56 м.
Вид битрейта : Постоянный
Битрейт : 128 Кбит/сек
Каналы : 2 канала
Частота : 48,0 КГц
Метод сжатия : С потерями
Размер потока : 107 Мбайт (14%)
Выравнивание : Соединение по промежуткам
Продолжительность промежутка : 24 мс. (0,58 видеокадр)
Библиотека кодирования : LAMEЄЄ’$V"O»п€К•Д`.
Скриншоты
Скачать

Скачать торрент! Страшная воля богов / Kamisama no iu tôri / As the Gods Will (Такаси Миике / Takashi Miike) [2014, Япония, ужасы, триллер, HDRip] Dub

Как скачивать? · Что такое торрент? · Рейтинг и ограничения

Сайт не распространяет и не хранит электронные версии произведений, а лишь предоставляет доступ к создаваемому пользователями каталогу ссылок на торрент-файлы, которые содержат только списки хеш-сумм

[Профиль] [ЛС]
Показать сообщения:    
Ответить на тему

Текущее время: Сегодня 10:40

Часовой пояс: GMT + 4



Вы не можете начинать темы
Вы не можете отвечать на сообщения
Вы не можете редактировать свои сообщения
Вы не можете удалять свои сообщения
Вы не можете голосовать в опросах
Вы не можете прикреплять файлы к сообщениям
Вы не можете скачивать файлы