Черный клоун (Борис Галкин) [1994, Драма, VHSRip]

Ответить на тему
 
Автор Сообщение

user ®

Стаж: 7 лет 7 месяцев

Сообщений: 20008

Пост Пост: #1 от 27-Ноя-2015 17:30

[Цитировать]

Черный клоун
Жанр: Драма
Год выпуска: 1994
Продолжительность: 01:35:02
Режиссёр: Борис Галкин
В ролях: Борис Галкин, Евгения Уралова, Евгений Стеблов, Владислав Галкин, Мария Зайкова, Марианна Рубинчик, Владимир Тимофеев, Юрий Чернов, Клара Титова, Константин Титов, Евгений Ермолаев, Мурат Тхостов, Зоя Василькова, Руслан Наурбиев, Александр Балуев, Олег Голубицкий, Валерий Малышев, Елена Самсонова, Анна Фроловцева, Галина Дёмина, Михаил Бочаров, Клавдия Белова, Александр Александровский, Людмила Остюкова, Сергей Тытюков, Галина Калашникова
Описание: Маленький мальчик-канатаходец по имени Аксель разбился в цирке, но восточный экстрасенс возвращает его тело к жизни. Карл, одержимый идеей создания в мире идеального порядка хозяин экстрасенса, похоронил вместо Акселя труп сироты, а тело мальчика начал учить русскому языку и тренировать для шпионской деятельности на службе вермахта. Аксель стал немецким разведчиком, профессионалом высочайшего класса и вскоре появился в "родной" деревне под видом внука только что скончавшейся Пелагеи...
Доп. информация: Релиз взят с кинозала.
Сэмпл: https://yadi.sk/i/8rhRSt4ykmhYq
Качество видео: VHSRip
Формат видео: AVI
Видео: 704x528 (1.33:1), 25 fps, XviD MPEG-4 ~1861 kbps avg, 0.20 bit/pixel
Аудио: 48 kHz, MPEG Layer 3, 2 ch, ~192.00 kbps avg
MediaInfo
Чёрный клоун (1994).avi
Format : AVI
Format/Info : Audio Video Interleave
File size : 1.37 GiB
Duration : 1h 35mn
Overall bit rate : 2 063 Kbps
Writing library : VirtualDub build 35491/release
Video
ID : 0
Format : MPEG-4 Visual
Format profile : Advanced Simple@L5
Format settings, BVOP : 2
Format settings, QPel : Yes
Format settings, GMC : No warppoints
Format settings, Matrix : Default (MPEG)
Muxing mode : Packed bitstream
Codec ID : XVID
Codec ID/Hint : XviD
Duration : 1h 35mn
Bit rate : 1 861 Kbps
Width : 704 pixels
Height : 528 pixels
Display aspect ratio : 4:3
Frame rate : 25.000 fps
Color space : YUV
Chroma subsampling : 4:2:0
Bit depth : 8 bits
Scan type : Progressive
Compression mode : Lossy
Bits/(Pixel*Frame) : 0.200
Stream size : 1.24 GiB (90%)
Writing library : XviD 64
Audio
ID : 1
Format : MPEG Audio
Format version : Version 1
Format profile : Layer 3
Mode : Joint stereo
Mode extension : MS Stereo
Codec ID : 55
Codec ID/Hint : MP3
Duration : 1h 35mn
Bit rate mode : Constant
Bit rate : 192 Kbps
Channel(s) : 2 channels
Sampling rate : 48.0 KHz
Compression mode : Lossy
Stream size : 131 MiB (9%)
Alignment : Split accross interleaves
Interleave, duration : 40 ms (1.00 video frame)
Interleave, preload duration : 500 ms
Writing library : LAME3.98.4
Скриншоты
Скачать

Скачать торрент!

Как скачивать? · Что такое торрент? · Рейтинг и ограничения

Сайт не распространяет и не хранит электронные версии произведений, а лишь предоставляет доступ к создаваемому пользователями каталогу ссылок на торрент-файлы, которые содержат только списки хеш-сумм

[Профиль] [ЛС]
Показать сообщения:    
Ответить на тему

Текущее время: Сегодня 20:20

Часовой пояс: GMT + 4



Вы не можете начинать темы
Вы не можете отвечать на сообщения
Вы не можете редактировать свои сообщения
Вы не можете удалять свои сообщения
Вы не можете голосовать в опросах
Вы не можете прикреплять файлы к сообщениям
Вы не можете скачивать файлы