Потерявшиеся на солнце / Заблудшие души / Lost in the sun (Трей Нельсон / Trey Nelson) [2015, США, боевик, триллер, драма, WEB-DLRip] VO

Ответить на тему
 
Автор Сообщение

user ®

Стаж: 7 лет 7 месяцев

Сообщений: 20008

Пост Пост: #1 от 27-Ноя-2015 11:18

[Цитировать]

-Потерявшиеся на солнце | Lost in the sun- Год выпуска: 2015
Страна: США / Floren Shieh Productions
Жанр: боевик, триллер, драма
Продолжительность: ~ 01:35:41-Перевод: Любительский (одноголосый закадровый) | datynet-Режиссёр: Трей Нельсон / Trey Nelson-В ролях: Джош Дюамель, Джош Уиггинс, Линн Коллинс, Эмма Фурманн, Дебора Эбботт, Тиган Джей Бойд, Ребекка Чалив, Julie Cude-Eaton, Лоуренс Дин, Серина Дэннис-Описание: Фильм о Джоне, он мелкий мошенник. Он встречает подростка по имени Луи и отправляется с ним в дорожное приключение, где обучает его своим темным делам.- -| [url=http://***/forum/tracker.php?nm=Lost%20in%20the%20sun%20Trey%20Nelson]Ссылка на предыдущие и альтернативные раздачи[/url]-Качество: WEB-DLRip
Формат: AVI
Видео: XviD, ~ 1669 kbps, 720x304 (16:9), 23.976 fps
Аудио 1: MP3, 44.1 КГц, 2 ch, 256 kbps - Rus
Субтитры: отсутствуют-Озвучивание: Любительское (одноголосое) [datynet], перевод [Куценко]

MediaInfo
General
Complete name                            : /media/sdb1/home/immortalseed/private/rtorrent/data/Lost.in.the.Sun.2015.HDRip.avi
Format                                   : AVI
Format/Info                              : Audio Video Interleave
File size                                : 1.29 GiB
Duration                                 : 1h 35mn
Overall bit rate                         : 1 935 Kbps
Writing library                          : VirtualDub build 35576/release
Video
ID                                       : 0
Format                                   : MPEG-4 Visual
Format profile                           : Advanced Simple@L5
Format settings, BVOP                    : 2
Format settings, QPel                    : No
Format settings, GMC                     : No warppoints
Format settings, Matrix                  : Default (H.263)
Muxing mode                              : Packed bitstream
Codec ID                                 : XVID
Codec ID/Hint                            : XviD
Duration                                 : 1h 35mn
Bit rate                                 : 1 669 Kbps
Width                                    : 720 pixels
Height                                   : 304 pixels
Display aspect ratio                     : 2.35:1
Frame rate                               : 23.976 fps
Color space                              : YUV
Chroma subsampling                       : 4:2:0
Bit depth                                : 8 bits
Scan type                                : Progressive
Compression mode                         : Lossy
Bits/(Pixel*Frame)                       : 0.318
Stream size                              : 1.12 GiB (86%)
Writing library                          : XviD 66
Audio
ID                                       : 1
Format                                   : MPEG Audio
Format version                           : Version 1
Format profile                           : Layer 3
Codec ID                                 : 55
Codec ID/Hint                            : MP3
Duration                                 : 1h 35mn
Bit rate mode                            : Constant
Bit rate                                 : 256 Kbps
Channel(s)                               : 2 channels
Sampling rate                            : 44.1 KHz
Compression mode                         : Lossy
Stream size                              : 175 MiB (13%)
Alignment                                : Split accross interleaves
Interleave, duration                     : 42 ms (1.00 video frame)
Interleave, preload duration             : 500 ms
Скриншоты Скриншот с названием фильма
Скачать

Скачать торрент!

Как скачивать? · Что такое торрент? · Рейтинг и ограничения

Сайт не распространяет и не хранит электронные версии произведений, а лишь предоставляет доступ к создаваемому пользователями каталогу ссылок на торрент-файлы, которые содержат только списки хеш-сумм

[Профиль] [ЛС]
Показать сообщения:    
Ответить на тему

Текущее время: Сегодня 20:05

Часовой пояс: GMT + 4



Вы не можете начинать темы
Вы не можете отвечать на сообщения
Вы не можете редактировать свои сообщения
Вы не можете удалять свои сообщения
Вы не можете голосовать в опросах
Вы не можете прикреплять файлы к сообщениям
Вы не можете скачивать файлы