Полный контроль / Unterm Radar (Эльмар Фишер) [2015, Германия, триллер, драма, HDTVRip] (kon2011) + Sub Rus + Original Ger

Ответить на тему
 
Автор Сообщение

user ®

Стаж: 7 лет 7 месяцев

Сообщений: 20008

Пост Пост: #1 от 27-Ноя-2015 11:18

[Цитировать]

Полный контроль / Unterm Radar
Страна: Германия
Жанр: триллер, драма
Год выпуска: 2015
Продолжительность: 01:28:08
Перевод: Субтитры kon2011
Cубтитры: русские
Оригинальная аудиодорожка: немецкий
Режиссер: Эльмар Фишер /Elmar Fischer
В ролях: Кристиана Пауль, Хайно Ферх, Фабиан Хинрихс, Инка Фридрих, Маттиас Мачке, Ханс Вернер Майер, Линн Ройссе, Лара Мэндоки, Нюрсель Кёсе, Мирко Ланг
Описание: Берлинская полиция получает от своих лондонских коллег важную информацию: Исламисты готовят в столице Германии крупный теракт. Берлин взят под плотный полицейский контроль, но всё же избежать теракта не удалось - в центре города террорист-смертник взорвал пассажирский автобус. Начинаются отчаянные поиски подпольной терроргруппы. Руководство приказывает использовать все средства ...
Доп. информация: http://www.imdb.com/title/tt4505874/
http://www.kinopoisk.ru/film/898581
Сэмпл: http://multi-up.com/1076723
Качество видео: HDTVRip
Формат видео: MP4
Видео: MPEG-4 AVC, 2400 kbps, 1280x720, 25 fps
Аудио: AAC, 2 ch, 125kbps
Формат субтитров: hardsub (неотключаемые)
Доп. информация о субтитрах: kon2011
MediaInfo
Format : MPEG-4
Format profile : Base Media
Codec ID : isom
File size : 1.56 GiB
Duration : 1h 28mn
Overall bit rate mode : Variable
Overall bit rate : 2 528 Kbps
Encoded date : UTC 2015-11-23 10:36:58
Tagged date : UTC 2015-11-23 10:36:58
Writing application : FormatFactory : www.pcfreetime.com
Video
ID : 1
Format : MPEG-4 Visual
Format profile : Simple@L1
Format settings, BVOP : No
Format settings, QPel : No
Format settings, GMC : No warppoints
Format settings, Matrix : Default (H.263)
Codec ID : 20
Duration : 1h 28mn
Bit rate mode : Variable
Bit rate : 2 400 Kbps
Maximum bit rate : 8 163 Kbps
Width : 1 280 pixels
Height : 720 pixels
Display aspect ratio : 16:9
Frame rate mode : Constant
Frame rate : 25.000 fps
Color space : YUV
Chroma subsampling : 4:2:0
Bit depth : 8 bits
Scan type : Progressive
Compression mode : Lossy
Bits/(Pixel*Frame) : 0.104
Stream size : 1.48 GiB (95%)
Writing library : Lavc53.8.0
Encoded date : UTC 2015-11-23 10:36:58
Tagged date : UTC 2015-11-23 10:38:11
Audio
ID : 2
Format : AAC
Format/Info : Advanced Audio Codec
Format profile : LC
Codec ID : 40
Duration : 1h 28mn
Bit rate mode : Variable
Bit rate : 126 Kbps
Maximum bit rate : 168 Kbps
Channel(s) : 2 channels
Channel positions : Front: L R
Sampling rate : 44.1 KHz
Compression mode : Lossy
Stream size : 79.2 MiB (5%)
Encoded date : UTC 2015-11-23 10:37:56
Tagged date : UTC 2015-11-23 10:38:11
Скриншот c названием фильма Скриншоты
Скачать

Скачать торрент!

Как скачивать? · Что такое торрент? · Рейтинг и ограничения

Сайт не распространяет и не хранит электронные версии произведений, а лишь предоставляет доступ к создаваемому пользователями каталогу ссылок на торрент-файлы, которые содержат только списки хеш-сумм

[Профиль] [ЛС]
Показать сообщения:    
Ответить на тему

Текущее время: Сегодня 14:14

Часовой пояс: GMT + 4



Вы не можете начинать темы
Вы не можете отвечать на сообщения
Вы не можете редактировать свои сообщения
Вы не можете удалять свои сообщения
Вы не можете голосовать в опросах
Вы не можете прикреплять файлы к сообщениям
Вы не можете скачивать файлы