Потерявшиеся на солнце / Заблудшие души / Lost in the sun (Трей Нельсон / Trey Nelson) [2015, США, криминал, мелодрама, DVDRip] VO

Ответить на тему
 
Автор Сообщение

user ®

Стаж: 7 лет 7 месяцев

Сообщений: 20008

Пост Пост: #1 от 27-Ноя-2015 02:03

[Цитировать]

Потерявшиеся на солнце / Заблудшие души / Lost in the sun
Страна: США
Жанр: криминал, мелодрама
Год выпуска: 2015
Продолжительность: 01:35:41
Перевод: Одноголосый закадровый (PashaUp)
Cубтитры: нет
Режиссер: Трей Нельсон / Trey Nelson
В ролях: Джош Дюамель, Джош Уиггинс, Линн Коллинс, Эмма Фурманн, Тиган Бойд
Описание: По бескрайним просторам глухой американской провинции путешествуют двое: потертого вида мужчина и мальчик-подросток. Они передвигаются на угнанной машине и грабят все магазины, что попадаются им по пути. Что обьединяет этих двоих? Откуда и куда они держат путь?
Доп. информация: американское независимое кино. Один из тех фильмов, что радуют взоры критиков на Сандэнсе и ему подобных киносмотрах, напоминая, что можно снимать кино, даже если ты не встроился в систему Голливуда.
Перевод: М.Васильев
Озвучка: П.Морозов (релиз подготовлен ВК группой "Озвучка фильмов от PashaUP")
IMDB
КИНОПОИСК
Сэмпл
Качество видео: DVDRip
Формат видео: AVI
Видео: 882 Kbps, 640x272 (2.35:1) 23 976 fps, XviD
Аудио: 128 Kbps, 48.0 KHz, 2 ch, MP 3
MediaInfo
General
Complete name : C:\Users\Владелец\Desktop\Lost2015.avi
Format : AVI
Format/Info : Audio Video Interleave
File size : 698 MiB
Duration : 1h 35mn
Overall bit rate : 1 020 Kbps
Video
ID : 0
Format : MPEG-4 Visual
Format profile : Advanced Simple@L5
Format settings, BVOP : 2
Format settings, QPel : No
Format settings, GMC : No warppoints
Format settings, Matrix : Default (H.263)
Codec ID : XVID
Codec ID/Hint : XviD
Duration : 1h 35mn
Bit rate : 882 Kbps
Width : 640 pixels
Height : 272 pixels
Display aspect ratio : 2.35:1
Frame rate : 23.976 fps
Color space : YUV
Chroma subsampling : 4:2:0
Bit depth : 8 bits
Scan type : Progressive
Compression mode : Lossy
Bits/(Pixel*Frame) : 0.211
Stream size : 604 MiB (87%)
Writing library : XviD 67
Audio
ID : 1
Format : MPEG Audio
Format version : Version 1
Format profile : Layer 3
Mode : Joint stereo
Mode extension : MS Stereo
Codec ID : 55
Codec ID/Hint : MP3
Duration : 1h 35mn
Bit rate mode : Constant
Bit rate : 128 Kbps
Channel(s) : 2 channels
Sampling rate : 48.0 KHz
Compression mode : Lossy
Stream size : 87.6 MiB (13%)
Alignment : Aligned on interleaves
Interleave, duration : 42 ms (1.00 video frame)
Interleave, preload duration : 504 ms
Скриншот c названием фильма Скриншоты
Скачать

Скачать торрент!

Как скачивать? · Что такое торрент? · Рейтинг и ограничения

Сайт не распространяет и не хранит электронные версии произведений, а лишь предоставляет доступ к создаваемому пользователями каталогу ссылок на торрент-файлы, которые содержат только списки хеш-сумм

[Профиль] [ЛС]
Показать сообщения:    
Ответить на тему

Текущее время: Сегодня 14:34

Часовой пояс: GMT + 4



Вы не можете начинать темы
Вы не можете отвечать на сообщения
Вы не можете редактировать свои сообщения
Вы не можете удалять свои сообщения
Вы не можете голосовать в опросах
Вы не можете прикреплять файлы к сообщениям
Вы не можете скачивать файлы