Леди Терминатор / Lady Terminator / Pembalasan ratu pantai selatan (Джалил Джесон / Jalil Jackson) [1988, Индонезия, Треш, эротический боевик, DVDRip] DVO (fiendover)

Ответить на тему
 
Автор Сообщение

user ®

Стаж: 13 лет

Сообщений: 15071

Пост Пост: #1 от 26-Ноя-2015 13:39

[Цитировать]

Леди Терминатор / Lady Terminator / Pembalasan ratu pantai selatan- Страна: Индонезия
Жанр: Треш, эротический боевик
Год выпуска: 1988
Продолжительность: 01:20:42
Перевод: Любительский (двухголосый закадровый) fiendover
Cубтитры: нет
Оригинальная аудиодорожка: нет
Режиссер: Джалил Джесон / Jalil Jackson
В ролях: Барабара Энн Констэбл, Кристофер Дж. Харт, Клавдия Анджелика Рейдмейк, Джозеф П. МакГлинн, Адам Стардаст...
Описание from radu: Мистическая женщина по прозвищу “Королева Южных морей” совсем затрахала индонезийских мужиков, которые стали бояться её пуще налоговой полиции. Каждые сутки ей в опочивальню подавался новый мужчина, который должен был её удовлетворить. Поскольку такое могло быть под силу разве что Кинг-Конгу, то секс заканчивался ужасной смертью невольных любовников, которым “Королева” откусывала член “тем самым местом”, в котором уютно примостилась зловещая змейка, отвечающая за всю магию колдуньи. Как это ни странно, Кинг-Конг нашёлся, но, разумеется, не настоящий, а полный сил мужик, который трахнул царицу, как следует. После этого из неё выползло то самое её женское достоинство и обратилось в кинжал, который в свою очередь достался этому мачо. “Королева” низвергнулась в Южные моря, перед этим предупредив, что обязательно отыграется на потомке своего душегуба. Мы переносимся в настоящее время. Антрополог Таня Уилсон, заинтересовавшаяся этим кинжалом, полистав одну из книженций, совершает погружение в одно из Южных морей, где её телом завладевает “Королева”, которая проникает в девушку посредством знаменитой змейки, залезшей через причинное место. Затем Леди Терминатор выходит из морских пучин, принимается затрахивать до смерти окрестных мужиков и разыскивать потомка своего обидчика, которым стала очаровательная девушка по имени Эрика, буквально восходящая звезда поп-сцены…
Доп. информация: Рип сделан с [url=http://***/forum/viewtopic.php?t=3752438]DVD[/url] | SAMPLE
Качество видео: DVDRip
Формат видео: AVI
Видео: Xvid, 512x288 (16:9), 23.976 fps, 1157 kbps, 0.327 bit/pixel
Аудио: MP3, 48.0 KHz, stereo, 128kbps, 2 ch., MPEG Audio
MediaInfo
General
Complete name : D:\Lady Terminator (1988) DVDRip by Kteirby.avi
Format : AVI
Format/Info : Audio Video Interleave
File size : 747 MiB
Duration : 1h 20mn
Overall bit rate : 1 294 Kbps
Writing application : VirtualDubMod 1.5.10.3 | www.virtualdub-fr.org || (build 2550/release)
Writing library : VirtualDubMod build 2550/release
Video
ID : 0
Format : MPEG-4 Visual
Format profile : Advanced Simple@L5
Format settings, BVOP : 2
Format settings, QPel : No
Format settings, GMC : No warppoints
Format settings, Matrix : Custom
Codec ID : XVID
Codec ID/Hint : XviD
Duration : 1h 20mn
Bit rate : 1 157 Kbps
Width : 512 pixels
Height : 288 pixels
Display aspect ratio : 16:9
Frame rate : 23.976 fps
Color space : YUV
Chroma subsampling : 4:2:0
Bit depth : 8 bits
Scan type : Progressive
Compression mode : Lossy
Bits/(Pixel*Frame) : 0.327
Stream size : 668 MiB (89%)
Writing library : XviD 73
Audio
ID : 1
Format : MPEG Audio
Format version : Version 1
Format profile : Layer 3
Codec ID : 55
Codec ID/Hint : MP3
Duration : 1h 20mn
Bit rate mode : Constant
Bit rate : 128 Kbps
Channel(s) : 2 channels
Sampling rate : 48.0 KHz
Compression mode : Lossy
Stream size : 73.9 MiB (10%)
Alignment : Aligned on interleaves
Interleave, duration : 42 ms (1.00 video frame)
Interleave, preload duration : 504 ms
Writing library : LAME3.99r
Encoding settings : -m s -V 4 -q 2 -lowpass 17 -b 128
Скриншот c названием фильма [url=http://fastpic.ru/view/74/2015/1125/19bf5b11dcada0ed3c3be833d140d046.jpg.html]
Скриншоты
Скачать

Скачать торрент! Леди Терминатор / Lady Terminator / Pembalasan ratu pantai selatan (Джалил Джесон / Jalil Jackson) [1988, Индонезия, Треш, эротический боевик, DVDRip] DVO (fiendover)

Как скачивать? · Что такое торрент? · Рейтинг и ограничения

Сайт не распространяет и не хранит электронные версии произведений, а лишь предоставляет доступ к создаваемому пользователями каталогу ссылок на торрент-файлы, которые содержат только списки хеш-сумм

[Профиль] [ЛС]
Показать сообщения:    
Ответить на тему

Текущее время: Сегодня 17:40

Часовой пояс: GMT + 4



Вы не можете начинать темы
Вы не можете отвечать на сообщения
Вы не можете редактировать свои сообщения
Вы не можете удалять свои сообщения
Вы не можете голосовать в опросах
Вы не можете прикреплять файлы к сообщениям
Вы не можете скачивать файлы