Фантастическая четверка / Fantastic Four (Джош Транк / Josh Trank) [2015, США, Германия, Великобритания, Канада, фантастика, боевик, приключения, BDRip-AVC] Dub + Original (Eng) + Sub (Rus, Ukr, Eng)

Ответить на тему
 
Автор Сообщение

user ®

Стаж: 7 лет 7 месяцев

Сообщений: 20008

Пост Пост: #1 от 26-Ноя-2015 13:39

[Цитировать]

Фантастическая четверка
Fantastic Four
«Всё изменится»

Страна: США, Германия, Великобритания, Канада
Жанр: фантастика, боевик, приключения
Год выпуска: 2015
Продолжительность: 01:39:59
Перевод: Профессиональный (полное дублирование) [Лицензия iTunes]
Субтитры: русские (forced, full), украинские (full), английские (forced, full)
Оригинальная аудиодорожка: Английский
Режиссер: Джош Транк / Josh Trank
В ролях: Майлз Теллер, Майкл Б. Джордан, Кейт Мара, Джейми Белл, Тоби Кеббелл, Рег Э. Кэти, Тим Блейк Нельсон, Джошуа Монтес, Дэн Кастелланета, Оуэн Джадж, Кайлен Дэвис, Ивэн Ханнеманн
Описание:
История о четырех молодых астронавтах, которые отважились на авантюрное путешествие в параллельное измерение для исследования аномальной волны космической энергии. Вернувшись из путешествия, они обнаружили у себя суперспособности, которые навсегда изменили их жизни... Релиз:
Автор рипа: Stalker oK
Сэмпл
Качество видео: BDRip-AVC [Blu-ray Remux 1080p HDCLUB]
Формат видео: MKV
Видео кодек: AVC
Аудио кодек: AC3
Видео: 2228 Кбит/сек, 1108x464 (2.35:1), 23,976 кадр/сек, AVC
Аудио №1: русский, 384 Кбит/сек, 48 КГц, 16 бит, 5.1, AC3
Аудио №2: английский, 448 Кбит/сек, 48 КГц, 16 бит, 5.1, AC3
Навигация по главам: есть

MediaInfo
General
Unique ID : 186786746170522914846860202562289714762 (0x8C85D19AAD880A7E9E15A7C31DE0C64A)
Complete name : M:\Rips\Fantastic Four\Fantastic.Four.2015.BDRip-AVC.Dub.2.18Gb...stalkerok.new-team.mkv
Format : Matroska
File size : 2.13 GiB
Duration : 1h 39mn
Overall bit rate : 3 047 Kbps
Movie name : Fantastic Four (2015) (New-Team) (Rip by Stalker oK)
Encoded date : UTC 2015-11-25 11:38:34
Writing application : mkvmerge v7.9.0 ('Birds') 64bit
Writing library : libebml v1.3.1 + libmatroska v1.4.2
Video
ID : 1
Format : AVC
Format/Info : Advanced Video Codec
Format profile : High@L4.1
Format settings, CABAC : Yes
Format settings, ReFrames : 13 frames
Codec ID : V_MPEG4/ISO/AVC
Duration : 1h 39mn
Bit rate : 2 228 Kbps
Width : 1 108 pixels
Height : 464 pixels
Display aspect ratio : 2.35:1
Frame rate : 23.976 fps
Color space : YUV
Chroma subsampling : 4:2:0
Bit depth : 8 bits
Scan type : Progressive
Bits/(Pixel*Frame) : 0.181
Stream size : 1.50 GiB (71%)
Title : Fantastic Four (2015) (New-Team) (Rip by Stalker oK)
Writing library : x264 core 146 r2538kMod 121396c
Encoding settings : cabac=1 / ref=13 / deblock=1:-3:-3 / analyse=0x3:0x133 / me=umh / subme=11 / psy=1 / fade_compensate=0.00 / psy_rd=1.00:0.10 / mixed_ref=1 / me_range=48 / chroma_me=1 / trellis=2 / 8x8dct=1 / cqm=0 / deadzone=21,11 / fast_pskip=0 / chroma_qp_offset=-3 / threads=12 / lookahead_threads=3 / sliced_threads=0 / nr=0 / decimate=0 / interlaced=0 / bluray_compat=0 / constrained_intra=0 / fgo=0 / bframes=13 / b_pyramid=2 / b_adapt=2 / b_bias=0 / direct=3 / weightb=1 / open_gop=0 / weightp=2 / keyint=240 / keyint_min=23 / scenecut=40 / intra_refresh=0 / rc_lookahead=60 / rc=2pass / mbtree=0 / bitrate=2228 / ratetol=1.0 / qcomp=0.70 / qpmin=0 / qpmax=69 / qpstep=4 / cplxblur=20.0 / qblur=0.5 / vbv_maxrate=50000 / vbv_bufsize=62500 / nal_hrd=none / filler=0 / ip_ratio=1.40 / pb_ratio=1.30 / aq=3:0.87
Audio #1
ID : 2
Format : AC-3
Format/Info : Audio Coding 3
Mode extension : CM (complete main)
Codec ID : A_AC3
Duration : 1h 39mn
Bit rate mode : Constant
Bit rate : 384 Kbps
Channel(s) : 6 channels
Channel positions : Front: L C R, Side: L R, LFE
Sampling rate : 48.0 KHz
Bit depth : 16 bits
Compression mode : Lossy
Stream size : 275 MiB (13%)
Language : Russian
Audio #2
ID : 3
Format : AC-3
Format/Info : Audio Coding 3
Mode extension : CM (complete main)
Codec ID : A_AC3
Duration : 1h 39mn
Bit rate mode : Constant
Bit rate : 448 Kbps
Channel(s) : 6 channels
Channel positions : Front: L C R, Side: L R, LFE
Sampling rate : 48.0 KHz
Bit depth : 16 bits
Compression mode : Lossy
Stream size : 320 MiB (15%)
Language : English
Text #1
ID : 4
Format : UTF-8
Codec ID : S_TEXT/UTF8
Codec ID/Info : UTF-8 Plain Text
Title : Forced
Language : Russian
Text #2
ID : 5
Format : UTF-8
Codec ID : S_TEXT/UTF8
Codec ID/Info : UTF-8 Plain Text
Title : Full
Language : Russian
Text #3
ID : 6
Format : UTF-8
Codec ID : S_TEXT/UTF8
Codec ID/Info : UTF-8 Plain Text
Title : Full
Language : Ukrainian
Text #4
ID : 7
Format : UTF-8
Codec ID : S_TEXT/UTF8
Codec ID/Info : UTF-8 Plain Text
Title : forced
Language : English
Text #5
ID : 8
Format : UTF-8
Codec ID : S_TEXT/UTF8
Codec ID/Info : UTF-8 Plain Text
Title : full
Language : English
Menu
00:00:00.000 : en:Chapter 1
00:02:30.024 : en:Chapter 2
00:07:22.608 : en:Chapter 3
00:11:00.158 : en:Chapter 4
00:14:59.523 : en:Chapter 5
00:17:57.785 : en:Chapter 6
00:22:03.320 : en:Chapter 7
00:24:44.481 : en:Chapter 8
00:27:49.875 : en:Chapter 9
00:30:19.776 : en:Chapter 10
00:34:56.010 : en:Chapter 11
00:38:16.376 : en:Chapter 12
00:43:10.085 : en:Chapter 13
00:48:16.059 : en:Chapter 14
00:51:35.300 : en:Chapter 15
00:54:27.054 : en:Chapter 16
00:57:18.101 : en:Chapter 17
01:00:27.831 : en:Chapter 18
01:04:34.911 : en:Chapter 19
01:08:04.496 : en:Chapter 20
01:12:08.282 : en:Chapter 21
01:15:09.962 : en:Chapter 22
01:19:10.162 : en:Chapter 23
01:22:16.514 : en:Chapter 24
01:24:49.542 : en:Chapter 25
01:27:01.341 : en:Chapter 26
01:30:49.569 : en:Chapter 27
01:33:00.448 : en:Chapter 28
Скриншоты
Скачать

Скачать торрент!

Как скачивать? · Что такое торрент? · Рейтинг и ограничения

Сайт не распространяет и не хранит электронные версии произведений, а лишь предоставляет доступ к создаваемому пользователями каталогу ссылок на торрент-файлы, которые содержат только списки хеш-сумм

[Профиль] [ЛС]
Показать сообщения:    
Ответить на тему

Текущее время: Сегодня 22:14

Часовой пояс: GMT + 4



Вы не можете начинать темы
Вы не можете отвечать на сообщения
Вы не можете редактировать свои сообщения
Вы не можете удалять свои сообщения
Вы не можете голосовать в опросах
Вы не можете прикреплять файлы к сообщениям
Вы не можете скачивать файлы