Кливлендские пленницы / Cleveland Abduction (Алекс Калимниос / Alex Kalymnios) [2015, США, драма, криминал, биография, WEB-DLRip] MVO (iTunes)

Ответить на тему
 
Автор Сообщение

user ®

Стаж: 7 лет 7 месяцев

Сообщений: 20008

Пост Пост: #1 от 26-Ноя-2015 10:33

[Цитировать]

Кливлендские пленницы / Cleveland Abduction
Страна: США
Жанр: драма, криминал, биография
Год выпуска: 2015
Продолжительность: 01:27:23
Перевод: Профессиональный (многоголосый закадровый) - iTunes
Cубтитры: нет

Режиссер: Алекс Калимниос / Alex Kalymnios
В ролях: Тэрин Мэннинг, Рэймонд Крус, Кэти Сариф, Саманта Дроук, Пэм Гриер, Джо Мортон, Джейн Моудер, Кристина Копф
Описание: Мать-одиночку, ставшую первой жертвой похитителя Ариеля Кастро, удерживают силой в его доме в течение 11 лет. Там она становится подругой и сестрой двум другим женщинам, похищенным Кастро.
Качество видео: WEB-DLRip [PleHHicy.2015.P.WEB-DL.720p.mkv]
Формат видео: AVI
Видео: 704x400 (1.76:1), 23.976 fps, XviD build 73 ~1991 kbps avg, 0.29 bit/pixel
Аудио: 48 kHz, AC3 Dolby Digital, 3/2 (L,C,R,l,r) + LFE ch, ~384 kbps


Сравнение
[url=http://***/forum/viewtopic.php?t=5101362]http://***/forum/viewtopic.php?t=5101362[/url]
http://screenshotcomparison.com/comparison/151876
MediaInfo
Общее
Полное имя : H:\Cleveland.Abduction.2015.web-dlrip_[1.46]_[teko].avi
Формат : AVI
Формат/Информация : Audio Video Interleave
Размер файла : 1,46 Гбайт
Продолжительность : 1 ч. 27 м.
Общий поток : 2385 Кбит/сек
Программа кодирования : VirtualDubMod 1.5.10.3 | www.virtualdub-fr.org || (build 2550/release)
Библиотека кодирования : VirtualDubMod build 2550/release
Видео
Идентификатор : 0
Формат : MPEG-4 Visual
Профиль формата : Advanced Simple@L5
Параметр BVOP формата : 1
Параметр QPel формата : Нет
Параметр GMC формата : Без точки перехода
Параметр матрицы формата : Выборочная
Идентификатор кодека : XVID
Идентификатор кодека/Подсказка : XviD
Продолжительность : 1 ч. 27 м.
Битрейт : 1992 Кбит/сек
Ширина : 704 пикселя
Высота : 400 пикселей
Соотношение сторон : 16:9
Частота кадров : 23,976 кадра/сек
Цветовое пространство : YUV
Субдискретизация насыщенности : 4:2:0
Битовая глубина : 8 бит
Тип развёртки : Прогрессивная
Метод сжатия : С потерями
Бит/(Пиксели*Кадры) : 0.295
Размер потока : 1,22 Гбайт (84%)
Библиотека кодирования : XviD 73
Аудио
Идентификатор : 1
Формат : AC-3
Формат/Информация : Audio Coding 3
Расширение режима : CM (complete main)
Параметр Endianness формата : Big
Идентификатор кодека : 2000
Продолжительность : 1 ч. 27 м.
Вид битрейта : Постоянный
Битрейт : 384 Кбит/сек
Каналы : 6 каналов
Расположение каналов : Front: L C R, Side: L R, LFE
Частота : 48,0 КГц
Битовая глубина : 16 бит
Метод сжатия : С потерями
Размер потока : 240 Мбайт (16%)
Выравнивание : Разделение по промежуткам
Продолжительность промежутка : 42 мс. (1,00 видеокадр)
Время предзагрузки промежутка : 500 мс.
Скриншоты Релиз группы:
[url=http://***/forum/viewtopic.php?t=1677970] [/url]
--
Скачать

Скачать торрент!

Как скачивать? · Что такое торрент? · Рейтинг и ограничения

Сайт не распространяет и не хранит электронные версии произведений, а лишь предоставляет доступ к создаваемому пользователями каталогу ссылок на торрент-файлы, которые содержат только списки хеш-сумм

[Профиль] [ЛС]
Показать сообщения:    
Ответить на тему

Текущее время: Сегодня 16:10

Часовой пояс: GMT + 4



Вы не можете начинать темы
Вы не можете отвечать на сообщения
Вы не можете редактировать свои сообщения
Вы не можете удалять свои сообщения
Вы не можете голосовать в опросах
Вы не можете прикреплять файлы к сообщениям
Вы не можете скачивать файлы