Алла в поисках Аллы (Алексей Карелин) [2015, мелодрама, HDTVRip]

Ответить на тему
 
Автор Сообщение

user ®

Стаж: 7 лет 7 месяцев

Сообщений: 20008

Пост Пост: #1 от 25-Ноя-2015 22:12

[Цитировать]

Алла в поисках Аллы
Жанр: мелодрама
Год выпуска: 2015
Продолжительность: 01:29:47
Режиссёр: Алексей Карелин
В ролях: Юлия Жигалина, Олег Алмазов, Максим Кречетов, Марина Денисова, Андрей Карако, Иван Павлов, Олег Ткачёв, Алла Волынец, Андрей Королевич, Александр Павлов (IV), Алексей Карелин
Описание: Успешная деловая женщина Алла Новикова впервые после окончания школы решила сходить на встречу одноклассников. Очнулась она на помойке на заднем дворе ресторана. Неприятности этим не ограничились, так как Алла упорно не могла вспомнить кто она такая, где живет, чем занимается.
Добрый самаритянин Андрей начинает помогать растерявшейся женщине и сразу обнаруживает, что у этой дамочки несносный характер. Память поэтапно возвращается к Алле. С помощью Андрея ей удается вспомнить всех своих мужей, найти свой офис, свою квартиру. Но, главное, ей удается новыми глазами взглянуть на свою прежнюю жизнь и счесть ее далекой от идеала…

Кинопоиск
Sample
Качество видео: HDTVRip
Формат видео: AVI
Видео: 720x400 (1.80:1), 25 fps, XviD build 73 ~1979 kbps avg, 0.28 bit/pixel
Аудио: 48 kHz, AC3 Dolby Digital, 2/0 (L,R) ch, ~192 kbps

MediaInfo
General
Complete name : K:\Алла в поисках Аллы 2015.avi
Format : AVI
Format/Info : Audio Video Interleave
File size : 1.37 GiB
Duration : 1h 29mn
Overall bit rate : 2 182 Kbps
Writing application : VirtualDubMod 1.5.10.3 | www.virtualdub-fr.org || (build 2550/release)
Writing library : VirtualDubMod build 2550/release
Video
ID : 0
Format : MPEG-4 Visual
Format profile : Advanced Simple@L5
Format settings, BVOP : 1
Format settings, QPel : No
Format settings, GMC : No warppoints
Format settings, Matrix : Custom
Codec ID : XVID
Codec ID/Hint : XviD
Duration : 1h 29mn
Bit rate : 1 980 Kbps
Width : 720 pixels
Height : 400 pixels
Display aspect ratio : 16:9
Frame rate : 25.000 fps
Color space : YUV
Chroma subsampling : 4:2:0
Bit depth : 8 bits
Scan type : Progressive
Compression mode : Lossy
Bits/(Pixel*Frame) : 0.275
Stream size : 1.24 GiB (91%)
Writing library : XviD 73
Audio
ID : 1
Format : AC-3
Format/Info : Audio Coding 3
Mode extension : CM (complete main)
Format settings, Endianness : Big
Codec ID : 2000
Duration : 1h 29mn
Bit rate mode : Constant
Bit rate : 192 Kbps
Channel count : 2 channels
Channel positions : Front: L R
Sampling rate : 48.0 KHz
Bit depth : 16 bits
Compression mode : Lossy
Stream size : 123 MiB (9%)
Alignment : Split accross interleaves
Interleave, duration : 40 ms (1.00 video frame)
Interleave, preload duration : 500 ms
Скриншот c названием фильма Скриншоты
Скачать

Скачать торрент!

Как скачивать? · Что такое торрент? · Рейтинг и ограничения

Сайт не распространяет и не хранит электронные версии произведений, а лишь предоставляет доступ к создаваемому пользователями каталогу ссылок на торрент-файлы, которые содержат только списки хеш-сумм

[Профиль] [ЛС]
Показать сообщения:    
Ответить на тему

Текущее время: Сегодня 22:22

Часовой пояс: GMT + 4



Вы не можете начинать темы
Вы не можете отвечать на сообщения
Вы не можете редактировать свои сообщения
Вы не можете удалять свои сообщения
Вы не можете голосовать в опросах
Вы не можете прикреплять файлы к сообщениям
Вы не можете скачивать файлы