Маммо / Mammo (Шьям Бенегал / Shyam Benegal) [1994, Индия, Драма, DVDRip] VO + Original + Sub Rus

Ответить на тему
 
Автор Сообщение

user ®

Стаж: 12 лет

Сообщений: 15092

Пост Пост: #1 от 25-Ноя-2015 12:54

[Цитировать]

Маммо / Mammo-- Страна: Индия
Жанр: Драма
Год выпуска: 1994
Продолжительность: 01:58:59
Перевод: Одноголосый закадровый
Перевод субтитров: Алла Свирид
Озвучка: Юлия Семыкина
Cубтитры: Русские (на песни) (перевод песен: Марина Комарова)
Оригинальная аудиодорожка: хинди--Режиссер: Шьям Бенегал / Shyam Benegal--В ролях: Фарида Джалал, Сурекха Сикри, Амит Пхалке, Химани Шивпури, Кишор Кадам, Сандип Кулкарни, Амея Балсекар, Сумья Дхан--Описание: Однажды в жизнь Ризу и его бабушки без всяких церемоний вторглась Маммо – сестра бабушки, приехавшая из Пакистана, где она оказалась никому не нужна после смерти мужа. Но и в Индии ее никто не ждал, и встретили крайне напряженно. Однако, оказалось, что с бабушкой Маммо не соскучишься. (Юлия Семыкина)--Релиз-группа:
Большое спасибо larisa_k, за предоставленные материалы
Сведение звука: pca1962--Сэмпл: http://multi-up.com/1076660
Качество видео: DVDRip
Формат видео: AVI
Видео: XviD, 704x448, 25.00 fps, 2019 kbps
Аудио: AC3, 48 kHz, 2.0 (stereo), 192 kbps (русский)
Аудио 2: AC3, 48 kHz, 2.0 (stereo), 192 kbps (хинди)
Формат субтитров: softsub (SRT)-
-
MediaInfo
General
Complete name : Mammo.1994.DVDRip.XviD.pca1962.avi
Format : AVI
Format/Info : Audio Video Interleave
Format profile : OpenDML
File size : 2.01 GiB
Duration : 1h 58mn
Overall bit rate : 2 422 Kbps
Movie name : Mammo.1994
Director : mixing audio rus - pca1962
Genre : Drama
Writing application : VirtualDubMod 1.5.10.2 (build 2542/release)
Original source form/Name : Movie
Video
ID : 0
Format : MPEG-4 Visual
Format profile : Advanced Simple@L5
Format settings, BVOP : 2
Format settings, QPel : No
Format settings, GMC : No warppoints
Format settings, Matrix : Custom
Codec ID : XVID
Codec ID/Hint : XviD
Duration : 1h 58mn
Bit rate : 2 019 Kbps
Width : 704 pixels
Height : 448 pixels
Display aspect ratio : 16:10
Frame rate : 25.000 fps
Color space : YUV
Chroma subsampling : 4:2:0
Bit depth : 8 bits
Scan type : Progressive
Compression mode : Lossy
Bits/(Pixel*Frame) : 0.256
Stream size : 1.68 GiB (83%)
Writing library : XviD 62
Audio #1
ID : 1
Format : AC-3
Format/Info : Audio Coding 3
Mode extension : CM (complete main)
Format settings, Endianness : Big
Codec ID : 2000
Duration : 1h 58mn
Bit rate mode : Constant
Bit rate : 192 Kbps
Channel(s) : 2 channels
Channel positions : Front: L R
Sampling rate : 48.0 KHz
Compression mode : Lossy
Stream size : 163 MiB (8%)
Alignment : Split accross interleaves
Interleave, duration : 40 ms (1.00 video frame)
Interleave, preload duratio : 500 ms
Audio #2
ID : 2
Format : AC-3
Format/Info : Audio Coding 3
Mode extension : CM (complete main)
Format settings, Endianness : Big
Codec ID : 2000
Duration : 1h 58mn
Bit rate mode : Constant
Bit rate : 192 Kbps
Channel(s) : 2 channels
Channel positions : Front: L R
Sampling rate : 48.0 KHz
Compression mode : Lossy
Stream size : 163 MiB (8%)
Alignment : Split accross interleaves
Interleave, duration : 40 ms (1.00 video frame)
Interleave, preload duratio : 500 ms

-
-Скриншот c названием фильма Скриншоты
Скачать

Скачать торрент! Маммо / Mammo (Шьям Бенегал / Shyam Benegal) [1994, Индия, Драма, DVDRip] VO + Original + Sub Rus

Как скачивать? · Что такое торрент? · Рейтинг и ограничения

Сайт не распространяет и не хранит электронные версии произведений, а лишь предоставляет доступ к создаваемому пользователями каталогу ссылок на торрент-файлы, которые содержат только списки хеш-сумм

[Профиль] [ЛС]
Показать сообщения:    
Ответить на тему

Текущее время: Сегодня 16:25

Часовой пояс: GMT + 4



Вы не можете начинать темы
Вы не можете отвечать на сообщения
Вы не можете редактировать свои сообщения
Вы не можете удалять свои сообщения
Вы не можете голосовать в опросах
Вы не можете прикреплять файлы к сообщениям
Вы не можете скачивать файлы