Высший класс / The Leisure Class (Джейсон Манн / Jason Mann) [2015, США, трагикомедия, HDTVRip] MVO (Amedia)

Ответить на тему
 
Автор Сообщение

user ®

Стаж: 7 лет 7 месяцев

Сообщений: 20008

Пост Пост: #1 от 23-Ноя-2015 20:42

[Цитировать]

Высший классThe Leisure Class- Год выпуска: 2015
Страна: США
Жанр: трагикомедия-Продолжительность: 01:21:52
Перевод: Профессиональный (многоголосый закадровый) Amedia
Оригинальная аудиодорожка: отсутствует-Режиссёр: Джейсон Манн / Jason Mann
В ролях: Эд Викс, Том Белл, Бриджет Риган, Скотти Томпсон, Мелани Занетти, Брюс Дэйвисон, Бренда Стронг, Кристин Лэйкин, Рори Нокс Джонстон, Лорен Рубин и др.-Описание: Комедия молодого режиссера Джейсона Манна – результат телепроекта HBO «Зеленый свет», в роли продюсеров которого выступили Бен Аффлек и Мэт Деймон. Уильям - добродушный англичанин-аферист, который выдает себя за человека из высшего общества и собирается прибрать к рукам деньги семьи сенатора Эдварда Лэнгстона, женившись на его дочери Фионе. В разгар приготовлений к свадьбе к Уильяму приезжает брат-раздолбай Леонард, который своими эксцентричными выходками грозит нарушить все планы Уильяма на благополучную свадьбу и последующую аферу. Одновременно Уильям начинает понимать, что по-настоящему влюблен в Фиону и теперь раскаивается в своих циничных замыслах.- -

Доп. информация
[url=http://***/forum/viewtopic.php?t=5111358]http://***/forum/viewtopic.php?t=5111358[/url] - "Деликатес".
[url=http://***/forum/viewtopic.php?t=5115474]http://***/forum/viewtopic.php?t=5115474[/url] - "Зелёный свет".
Sample-Качество: HDTVRip (источник: HDTVRip / 720p)
Формат: AVI
Видео: XviD, 688x384 (16:9), 25 fps, 2142 kbps
Аудио: Russian 48 KHz, AC3, 5.1 channels, 384 Kbps |Amedia|
Субтитры: нет-MediaInfo
General
Complete name : G:\The.Leisure.Class.2015.HDTVRip.XviD.AC3.-whip93.avi
Format : AVI
Format/Info : Audio Video Interleave
File size : 1.45 GiB
Duration : 1h 21mn
Overall bit rate : 2 536 Kbps
Movie name : Высший класс | The Leisure Class
Director : whip93
Genre : dramedy
Recorded date : 2015
Writing application : VirtualDubMod 1.5.10.3 | www.virtualdub-fr.org || (build 2550/release)
Writing library : VirtualDubMod build 2550/release
Copyright : whip93
Video
ID : 0
Format : MPEG-4 Visual
Format profile : Advanced Simple@L5
Format settings, BVOP : 1
Format settings, QPel : No
Format settings, GMC : No warppoints
Format settings, Matrix : Default (MPEG)
Codec ID : XVID
Codec ID/Hint : XviD
Duration : 1h 21mn
Bit rate : 2 142 Kbps
Width : 688 pixels
Height : 384 pixels
Display aspect ratio : 16:9
Frame rate : 25.000 fps
Color space : YUV
Chroma subsampling : 4:2:0
Bit depth : 8 bits
Scan type : Progressive
Compression mode : Lossy
Bits/(Pixel*Frame) : 0.324
Stream size : 1.23 GiB (84%)
Writing library : XviD 73
Audio
ID : 1
Format : AC-3
Format/Info : Audio Coding 3
Mode extension : CM (complete main)
Format settings, Endianness : Big
Codec ID : 2000
Duration : 1h 21mn
Bit rate mode : Constant
Bit rate : 384 Kbps
Channel(s) : 6 channels
Channel positions : Front: L C R, Side: L R, LFE
Sampling rate : 48.0 KHz
Compression mode : Lossy
Delay relative to video : 650ms
Stream size : 225 MiB (15%)
Alignment : Split accross interleaves
Interleave, duration : 40 ms (1.00 video frame)
Interleave, preload duration : 500 ms
Title : MVO (Amedia)
Скриншоты -
Скачать

Скачать торрент!

Как скачивать? · Что такое торрент? · Рейтинг и ограничения

Сайт не распространяет и не хранит электронные версии произведений, а лишь предоставляет доступ к создаваемому пользователями каталогу ссылок на торрент-файлы, которые содержат только списки хеш-сумм

[Профиль] [ЛС]
Показать сообщения:    
Ответить на тему

Текущее время: Сегодня 22:40

Часовой пояс: GMT + 4



Вы не можете начинать темы
Вы не можете отвечать на сообщения
Вы не можете редактировать свои сообщения
Вы не можете удалять свои сообщения
Вы не можете голосовать в опросах
Вы не можете прикреплять файлы к сообщениям
Вы не можете скачивать файлы