Я, Эрл и умирающая девушка / Me and Earl and the Dying Girl (Альфонсо Гомез-Рейон / Alfonso Gomez-Rejon) [2015, США, комедия, драма, HDRip] DVO (STEPonee)

Ответить на тему
 
Автор Сообщение

user ®

Стаж: 7 лет 7 месяцев

Сообщений: 20008

Пост Пост: #1 от 23-Ноя-2015 11:24

[Цитировать]

Я, Эрл и умирающая девушка / Me and Earl and the Dying Girl
Год выпуска: 2015
Страна: США
Жанр: комедия, драма
Продолжительность: 01:45:12
Перевод: любительский (двухголосый закадровый) STEPonee

Русские субтитры: нет
Режиссёр: Альфонсо Гомез-Рейон (Alfonso Gomez-Rejon)
В ролях:
  • Томас Манн (Thomas Mann) - Грег
  • Ар Джей Сайлер (RJ Cyler) - Эрл
  • Оливия Кук (Olivia Cooke) - Рейчел
  • Ник Офферман (Nick Offerman) - папа Грега
  • Конни Бриттон (Connie Britton) - мама Грега
  • Молли Шеннон (Molly Shannon) - Дениз
    Описание
    Грег — подросток, который увлекается постановкой и снимает любительские фильмы. Он посещает старшую школу и старается лишний раз не наживать себе врагов. Большого количества друзей у него нет, есть только коллега Эрл, разделяющий его интересы, с которым они смотрят и переснимают классические киноленты. Волей случая, Грег начинает тесно общаться с одноклассницей, тихой еврейской девочкой Рейчел, у которой обнаружена лейкемия. И в процессе общения случается так, что эти двое становятся незаменимыми друг для друга… Грег пытается оказать поддержку подруге, показывая свои фильмы.
    Сэмпл
    Роли озвучивали:
  • Илья Хайко
  • Натиа Макаридзе
    Перевод на русский язык: Мирошникова Александра (STEPonee)
    Подготовка релиза:
  • Анна Кудинова - тайминг
  • Натиа Макаридзе - обработка звука, монтаж
  • Dmitry Stilinski - постер
    Качество: HDRip
    Формат: MKV
    Видео: AVC, 720x304 (2.35:1), 23,976 к/с, 1 800 кбит/с
    Аудио: AC-3, 2.0, 48 кГц, 192 кбит/с
    Отчёт MediaInfo
General
Unique ID : 201516561671115186840592347221011085537
(0x979AAD941C4509DC99D7205B676E38E1)
Complete name : L:\downloads\[STEPonee] Me and Earl and the Dying
Girl\[STEPonee] Me and Earl and the Dying Girl\[STEPonee] Me and Earl and the
Dying Girl [DVO].mkv
Format : Matroska
Format version : Version 4 / Version 2
File size : 1.47 GiB
Duration : 1h 45mn
Overall bit rate : 1 995 Kbps
Encoded date : UTC 2015-11-22 12:49:41
Writing application : mkvmerge v7.0.0 ('Where We Going') 64bit built on
Jun 9 2014 15:16:27
Writing library : libebml v1.3.0 + libmatroska v1.4.1
DURATION : 01:45:12.448000000
NUMBER_OF_FRAMES : 197264
NUMBER_OF_BYTES : 151498752
_STATISTICS_WRITING_APP : mkvmerge v7.0.0 ('Where We Going') 64bit built on
Jun 9 2014 15:16:27
_STATISTICS_WRITING_DATE_UTC : 2015-11-22 12:49:41
_STATISTICS_TAGS : BPS DURATION NUMBER_OF_FRAMES NUMBER_OF_BYTES
Video
ID : 1
Format : AVC
Format/Info : Advanced Video Codec
Format profile : Baseline@L3.0
Format settings, CABAC : No
Format settings, ReFrames : 1 frame
Codec ID : V_MPEG4/ISO/AVC
Duration : 1h 45mn
Bit rate : 1 800 Kbps
Width : 720 pixels
Height : 304 pixels
Display aspect ratio : 2.35:1
Frame rate mode : Constant
Frame rate : 23.976 fps
Color space : YUV
Chroma subsampling : 4:2:0
Bit depth : 8 bits
Scan type : Progressive
Bits/(Pixel*Frame) : 0.343
Stream size : 1.30 GiB (88%)
Writing library : x264 core 142
Encoding settings : cabac=0 / ref=1 / deblock=1:0:0 /
analyse=0x1:0x111 / me=hex / subme=2 / psy=1 / psy_rd=1.00:0.00 / mixed_ref=0 /
me_range=16 / chroma_me=1 / trellis=0 / 8x8dct=0 / cqm=0 / deadzone=21,11 /
fast_pskip=1 / chroma_qp_offset=0 / threads=6 / lookahead_threads=2 /
sliced_threads=0 / nr=0 / decimate=1 / interlaced=0 / bluray_compat=0 /
constrained_intra=0 / bframes=0 / weightp=0 / keyint=250 / keyint_min=23 /
scenecut=40 / intra_refresh=0 / rc_lookahead=10 / rc=2pass / mbtree=1 /
bitrate=1800 / ratetol=1.0 / qcomp=0.60 / qpmin=0 / qpmax=69 / qpstep=4 /
cplxblur=20.0 / qblur=0.5 / ip_ratio=1.40 / aq=1:1.00
Default : Yes
Forced : No
Audio
ID : 2
Format : AC-3
Format/Info : Audio Coding 3
Mode extension : CM (complete main)
Format settings, Endianness : Big
Codec ID : A_AC3
Duration : 1h 45mn
Bit rate mode : Constant
Bit rate : 192 Kbps
Channel count : 2 channels
Channel positions : Front: L R
Sampling rate : 48.0 KHz
Bit depth : 16 bits
Compression mode : Lossy
Stream size : 144 MiB (10%)
Language : Russian
Default : Yes
Forced : Yes
Скриншоты Все раздачи студии
[url=http://***/forum/tracker.php?nm=steponee]Все разделы[/url]
[url=http://***/forum/tracker.php?f=915&nm=steponee]Корейские сериалы[/url]
[url=http://***/forum/tracker.php?f=1939&nm=steponee]Японские сериалы[/url]
[url=http://***/forum/tracker.php?f=2412&nm=steponee]Прочие азиатские сериалы[/url]
[url=http://***/forum/tracker.php?f=934&nm=steponee]Азиатские фильмы[/url]
Скачать

Скачать торрент!

Как скачивать? · Что такое торрент? · Рейтинг и ограничения

Сайт не распространяет и не хранит электронные версии произведений, а лишь предоставляет доступ к создаваемому пользователями каталогу ссылок на торрент-файлы, которые содержат только списки хеш-сумм

[Профиль] [ЛС]
Показать сообщения:    
Ответить на тему

Текущее время: Сегодня 08:39

Часовой пояс: GMT + 4



Вы не можете начинать темы
Вы не можете отвечать на сообщения
Вы не можете редактировать свои сообщения
Вы не можете удалять свои сообщения
Вы не можете голосовать в опросах
Вы не можете прикреплять файлы к сообщениям
Вы не можете скачивать файлы