Зло во благо / Над законом / Вне закона / Righting Wrongs / Above The Law / Zhi fa xian feng (Кори Юэнь / Corey Yuen) [1986, Гонконг, боевик, DVDRip-AVC] DVO (Рен-ТВ) + AVO (Живов) + AVO (Петербуржец) + AVO (Санаев) + Sub Rus + Original Chi

Ответить на тему
 
Автор Сообщение

user ®

Стаж: 13 лет

Сообщений: 15071

Пост Пост: #1 от 22-Ноя-2015 16:48

[Цитировать]

Зло во благо / Над законом / Вне закона / Righting Wrongs / Above The Law / Zhi fa xian feng / Американская версия
Страна: Гонконг
Жанр: боевик
Год выпуска: 1986
Продолжительность: 01:34:14
-
Перевод 1: Профессиональный (двухголосый закадровый) DVO (Рен-ТВ) со вставками AVO (Юрий Живов)
Перевод 2: Авторский (одноголосый закадровый) Юрий Живов
Перевод 3: Авторский (одноголосый закадровый) Петербуржец со вставками AVO (Юрий Живов)
Перевод 4: Авторский (одноголосый закадровый) Павел Санаев со вставками AVO (Юрий Живов)
Cубтитры: русские (полные)
Оригинальная аудиодорожка: китайский
-
Режиссер: Кори Юэнь / Corey Yuen
В ролях: Юэнь Бяо, Синтия Ротрок, Рой Чяо, Фан Сю-Вонг, Мелвин Вонг, Кори Юэнь, Сэнди Чан, Фэт Чунг, Питер Каннингэм, Сиу-Минг Лау
-
Описание: Молодой юрист Ся Лин-Чин собрал много томов документов, обвиняющих короля уголовного мира в совершении ряда преступлений. Но накануне судебного заседания мафия отправила на тот свет главного свидетеля. После чего Ся Лин-Чин понял, что пришла пора вершить правосудие собственными руками…
-
Доп. информация:
-
Сэмпл: http://sendfile.su/1176039
-
Качество видео: DVDRip-AVC (DVD9/ilya29)
Формат видео: MKV
Видео: 696x388 (1.956:1) @ 759x388, 25 fps, AVC, ~2 340 Kbps, 0.347 bits/pixel
Аудио 1: 48 kHz, AC3 Dolby Digital, 2/0 (L,R) ch, ~192 kbps Рен-ТВ
Аудио 2: 48 kHz, AC3 Dolby Digital, 3/2 (L,C,R,l,r) + LFE ch, ~384 kbps Живов
Аудио 3: 48 kHz, AC3 Dolby Digital, 3/2 (L,C,R,l,r) + LFE ch, ~384 kbps Chi
Аудио 4: 48 kHz, AC3 Dolby Digital, 2/0 (L,R) ch, ~192 kbps Петербуржец Отдельно
Аудио 5: 48 kHz, AC3 Dolby Digital, 2/0 (L,R) ch, ~192 kbps Санаев Отдельно
Формат субтитров: softsub (SRT)
MediaInfo
x264 [info]: frame I:1247 Avg QP:13.95 size: 43876
x264 [info]: frame P:37304 Avg QP:16.54 size: 22173
x264 [info]: frame B:102812 Avg QP:20.70 size: 7512-General
Unique ID : 206540658904257005409439624507860418214 (0x9B6248B25ED9426E993043BF4A777EA6)
Complete name : C:\Users\ALEX\Downloads\Фильмы\Righting Wrongs.Zhi fa xian feng.1986.DUALRUS.CHI.DVDRip-AVC.x264.AC3.Sub\Righting Wrongs.Zhi fa xian feng.1986.DUALRUS.CHI.DVDRip-AVC.x264.AC3.Sub.mkv
Format : Matroska
Format version : Version 4 / Version 2
File size : 2.17 GiB
Duration : 1h 34mn
Overall bit rate : 3 303 Kbps
Encoded date : UTC 2015-11-21 19:51:38
Writing application : mkvmerge v8.5.2 ('Crosses') 64bit
Writing library : libebml v1.3.3 + libmatroska v1.4.4
DURATION : 01:31:51.073000000
NUMBER_OF_FRAMES : 1034
NUMBER_OF_BYTES : 53377
_STATISTICS_WRITING_APP : mkvmerge v8.5.2 ('Crosses') 64bit
_STATISTICS_WRITING_DATE_UT : 2015-11-21 19:51:38
_STATISTICS_TAGS : BPS DURATION NUMBER_OF_FRAMES NUMBER_OF_BYTES
Video
ID : 1
Format : AVC
Format/Info : Advanced Video Codec
Format profile : High@L4.1
Format settings, CABAC : Yes
Format settings, ReFrames : 14 frames
Codec ID : V_MPEG4/ISO/AVC
Duration : 1h 34mn
Bit rate : 2 340 Kbps
Width : 696 pixels
Height : 388 pixels
Display aspect ratio : 1.956
Original display aspect rat : 1.957
Frame rate mode : Constant
Frame rate : 25.000 fps
Color space : YUV
Chroma subsampling : 4:2:0
Bit depth : 8 bits
Scan type : Progressive
Bits/(Pixel*Frame) : 0.347
Stream size : 1.50 GiB (69%)
Title : Righting Wrongs
Writing library : x264 core 146 r2538 121396c
Encoding settings : cabac=1 / ref=14 / deblock=1:2:1 / analyse=0x3:0x113 / me=umh / subme=10 / psy=1 / psy_rd=1.00:0.05 / mixed_ref=1 / me_range=32 / chroma_me=1 / trellis=2 / 8x8dct=1 / cqm=0 / deadzone=21,11 / fast_pskip=0 / chroma_qp_offset=-4 / threads=6 / lookahead_threads=1 / sliced_threads=0 / nr=0 / decimate=1 / interlaced=0 / bluray_compat=0 / constrained_intra=0 / bframes=12 / b_pyramid=2 / b_adapt=2 / b_bias=0 / direct=3 / weightb=1 / open_gop=0 / weightp=1 / keyint=250 / keyint_min=25 / scenecut=40 / intra_refresh=0 / rc_lookahead=50 / rc=2pass / mbtree=1 / bitrate=2340 / ratetol=1.0 / qcomp=0.60 / qpmin=0 / qpmax=69 / qpstep=4 / cplxblur=20.0 / qblur=0.5 / ip_ratio=1.40 / aq=1:1.00
Default : Yes
Forced : No
Audio #1
ID : 2
Format : AC-3
Format/Info : Audio Coding 3
Mode extension : CM (complete main)
Format settings, Endianness : Big
Codec ID : A_AC3
Duration : 1h 34mn
Bit rate mode : Constant
Bit rate : 192 Kbps
Channel(s) : 2 channels
Channel positions : Front: L R
Sampling rate : 48.0 KHz
Compression mode : Lossy
Stream size : 129 MiB (6%)
Title : DVO (Рен-ТВ) со вставками AVO (Юрий Живов)
Language : Russian
Default : Yes
Forced : No
Audio #2
ID : 3
Format : AC-3
Format/Info : Audio Coding 3
Mode extension : CM (complete main)
Format settings, Endianness : Big
Codec ID : A_AC3
Duration : 1h 34mn
Bit rate mode : Constant
Bit rate : 384 Kbps
Channel(s) : 6 channels
Channel positions : Front: L C R, Side: L R, LFE
Sampling rate : 48.0 KHz
Compression mode : Lossy
Stream size : 259 MiB (12%)
Title : AVO (Юрий Живов)
Language : Russian
Default : No
Forced : No
Audio #3
ID : 4
Format : AC-3
Format/Info : Audio Coding 3
Mode extension : CM (complete main)
Format settings, Endianness : Big
Codec ID : A_AC3
Duration : 1h 34mn
Bit rate mode : Constant
Bit rate : 384 Kbps
Channel(s) : 6 channels
Channel positions : Front: L C R, Side: L R, LFE
Sampling rate : 48.0 KHz
Compression mode : Lossy
Stream size : 259 MiB (12%)
Title : Original
Language : Chinese
Default : No
Forced : No
Text
ID : 5
Format : UTF-8
Codec ID : S_TEXT/UTF8
Codec ID/Info : UTF-8 Plain Text
Title : Full
Language : Russian
Default : No
Forced : No
Скриншоты
Скачать

Скачать торрент! Зло во благо / Над законом / Вне закона / Righting Wrongs / Above The Law / Zhi fa xian feng (Кори Юэнь / Corey Yuen) [1986, Гонконг, боевик, DVDRip-AVC] DVO (Рен-ТВ) + AVO (Живов) + AVO (Петербуржец) + AVO (Санаев) + Sub Rus + Original Chi

Как скачивать? · Что такое торрент? · Рейтинг и ограничения

Сайт не распространяет и не хранит электронные версии произведений, а лишь предоставляет доступ к создаваемому пользователями каталогу ссылок на торрент-файлы, которые содержат только списки хеш-сумм

[Профиль] [ЛС]
Показать сообщения:    
Ответить на тему

Текущее время: Сегодня 21:41

Часовой пояс: GMT + 4



Вы не можете начинать темы
Вы не можете отвечать на сообщения
Вы не можете редактировать свои сообщения
Вы не можете удалять свои сообщения
Вы не можете голосовать в опросах
Вы не можете прикреплять файлы к сообщениям
Вы не можете скачивать файлы