Человек-муравей / Ant-Man (Пейтон Рид / Peyton Reed) [2015, США, фантастика, боевик, комедия, HDRip] Dub

Ответить на тему
 
Автор Сообщение

user ®

Стаж: 7 лет 7 месяцев

Сообщений: 20008

Пост Пост: #1 от 22-Ноя-2015 16:48

[Цитировать]

Человек-муравей / Ant-Man
Страна: США
Жанр: фантастика, боевик, комедия
Год выпуска: 2015
Продолжительность: 01:57:07
Перевод: Профессиональный (дублированный) [iTunes]
Оригинальная аудиодорожка: нет
Cубтитры: нет
Режиссер: Пейтон Рид / Peyton Reed
В ролях: Пол Радд, Майкл Дуглас, Эванджелин Лилли, Кори Столл, Майкл Пенья, Бобби Каннавале, Ти-Ай, Давид Дастмалчян, Эбби Райдер Фортсон, Джуди Грир, Энтони Маки, Вуд Харрис
Описание:Уже прошло несколько десятков лет с того момента как выдающийся биохимик по имени Хэнк Пим совершил невероятное открытие. Хэнк смог создать специальный костюм, надев который, человек уменьшается в размерах до уровня муравья, но при этом вся мозговая деятельность остается той же, а сила увеличивается, ведь, как известно, муравьи могут поднимать предметы, которые весят больше них в несколько раз. В последствии, воодушевлённый своими открытиями и способностями, которые перед ним открывают эти изобретения, этот человек стал самым настоящим супер-героем, и начал свою собственную борьбу со злом. Но всё в этом мире изменилось: враги стали сильнее, борьба стала ещё более жестокой. Теперь он ищет того, кому смог бы передать свой секрет и оборудование, чтобы новые приемник продолжил это сложное и опасное дело. Испытать этот костюм берется хороший приятель доктора Пима, молодой парень, по имени Скотт Лэнг. У него есть кое-какие проблемы с законом, в его жизни было много трудностей, но у него доброе сердце и такой человек действительно достоин этой супер-силы. Под руководством изобретателя чудо-костюма, талантливого ученого Хэнка Пима, Скотт должен найти в себе силы стать настоящим героем и защитить мир от надвигающейся угрозы. Пим и Лэнг должны спланировать и устроить ограбление века, от которого зависит судьба

Качество: НDRip
Контейнер: AVI
Видео: 688x368 (1.87:1), 23.976 fps, XviD build 50 ~722 kbps avg, 0.12 bit/pixel
Аудио: 48 kHz, MPEG Layer 3, 2 ch, ~128.00 kbps avg

MI
Общее
Полное имя : D:\Мои рипы\Человек-муравей_HDRip_Некул.avi
Формат : AVI
Формат/Информация : Audio Video Interleave
Размер файла : 720 Мбайт
Продолжительность : 1 ч. 57 м.
Общий поток : 860 Кбит/сек
Программа кодирования : VirtualDubMod 1.5.10.3 | www.virtualdub-fr.org || (build 2550/release)
Библиотека кодирования : VirtualDubMod build 2550/release
Видео
Идентификатор : 0
Формат : MPEG-4 Visual
Профиль формата : Advanced Simple@L5
Параметр BVOP формата : 2
Параметр QPel формата : Нет
Параметр GMC формата : Без точки перехода
Параметр матрицы формата : Default (MPEG)
Идентификатор кодека : XVID
Идентификатор кодека/Подсказка : XviD
Продолжительность : 1 ч. 57 м.
Битрейт : 722 Кбит/сек
Ширина : 688 пикселей
Высота : 368 пикселей
Соотношение сторон : 1,85:1
Частота кадров : 23,976 кадра/сек
Цветовое пространство : YUV
Субдискретизация насыщенности : 4:2:0
Битовая глубина : 8 бит
Тип развёртки : Прогрессивная
Метод сжатия : С потерями
Бит/(Пиксели*Кадры) : 0.119
Размер потока : 605 Мбайт (84%)
Библиотека кодирования : XviD 1.2.1 (UTC 2008-12-04)
Аудио
Идентификатор : 1
Формат : MPEG Audio
Версия формата : Version 1
Профиль формата : Layer 3
Идентификатор кодека : 55
Идентификатор кодека/Подсказка : MP3
Продолжительность : 1 ч. 57 м.
Вид битрейта : Постоянный
Битрейт : 128 Кбит/сек
Каналы : 2 канала
Частота : 48,0 КГц
Метод сжатия : С потерями
Размер потока : 107 Мбайт (15%)
Выравнивание : Соединение по промежуткам
Продолжительность промежутка : 42 мс. (1,00 видеокадр)
Время предзагрузки промежутка : 504 мс.
Библиотека кодирования : LAME3.99r
Настройки программы : -m s -V 4 -q 2 -lowpass 17 -b 128
Скриншоты
Скачать

Скачать торрент!

Как скачивать? · Что такое торрент? · Рейтинг и ограничения

Сайт не распространяет и не хранит электронные версии произведений, а лишь предоставляет доступ к создаваемому пользователями каталогу ссылок на торрент-файлы, которые содержат только списки хеш-сумм

[Профиль] [ЛС]
Показать сообщения:    
Ответить на тему

Текущее время: Сегодня 18:18

Часовой пояс: GMT + 4



Вы не можете начинать темы
Вы не можете отвечать на сообщения
Вы не можете редактировать свои сообщения
Вы не можете удалять свои сообщения
Вы не можете голосовать в опросах
Вы не можете прикреплять файлы к сообщениям
Вы не можете скачивать файлы