Человек-муравей / Ant-Man (Пейтон Рид / Peyton Reed) [2015, США, фантастика, боевик, комедия, BDRip-AVC] Dub + Original (Eng) + Sub (Rus, Eng)

Ответить на тему
 
Автор Сообщение

user ®

Стаж: 7 лет 7 месяцев

Сообщений: 20008

Пост Пост: #1 от 22-Ноя-2015 16:48

[Цитировать]

Человек-муравей
Ant-Man
«Рожденный ползать взлетит до небес»

Страна: США
Жанр: фантастика, боевик, комедия, приключения
Год выпуска: 2015
Продолжительность: 01:57:22
Перевод: Профессиональный (полное дублирование) [Лицензия iTunes]
Субтитры: русские (Forced, Full), английские (Full)
Оригинальная аудиодорожка: Английский
Режиссер: Пейтон Рид / Peyton Reed
В ролях: Пол Радд, Майкл Дуглас, Эванджелин Лилли, Кори Столл, Майкл Пенья, Бобби Каннавале, Ти-Ай, Давид Дастмалчян, Эбби Райдер Фортсон, Джуди Грир, Энтони Маки, Вуд Харрис
Описание:
Вооружившись удивительной способностью уменьшаться в размере, но обладать при этом большой силой, мошенник Скотт Лэнг должен стать героем и помочь своему наставнику, доктору Хэнку Пиму, сохранить в тайне существование костюма Человека-муравья от угроз нового поколения. Релиз:
Автор рипа: Stalker oK
Сэмпл
Качество видео: BDRip-AVC [Blu-ray Remux 1080p HDCLUB]
Формат видео: MKV
Видео кодек: AVC
Аудио кодек: AC3
Видео: 1892 Кбит/сек, 960*518 (1,853), в 23,976 кадр/сек, AVC
Аудио #1: Russian, 384 Кбит/сек, 48,0 КГц, 16 бит, 6 канала(ов), AC-3
Аудио #2: English, 384 Кбит/сек, 48,0 КГц, 16 бит, 6 канала(ов), AC-3
Навигация по главам: есть

MediaInfo
Общее
Уникальный идентификатор : 195256674397014994250747064114266609688 (0x92E5114EA4F5F045A05AE9F58A359818)
Полное имя : M:\Rips\Ant-Man\Ant-Man.2015.BDRip-AVC.Dub.2.18Gb...stalkerok.new-team.mkv
Формат : Matroska
Размер файла : 2,18 Гбайт
Продолжительность : 1 ч. 57 м.
Общий поток : 2661 Кбит/сек
Название фильма : Ant-Man (2015) (New-Team) (Rip by Stalker oK)
Дата кодирования : UTC 2015-11-21 11:49:02
Программа кодирования : mkvmerge v7.9.0 ('Birds') 64bit
Библиотека кодирования : libebml v1.3.1 + libmatroska v1.4.2
Видео
Идентификатор : 1
Формат : AVC
Формат/Информация : Advanced Video Codec
Профиль формата : High@L4.1
Параметр CABAC формата : Да
Параметр ReFrames формата : 13 кадры
Идентификатор кодека : V_MPEG4/ISO/AVC
Продолжительность : 1 ч. 57 м.
Битрейт : 1892 Кбит/сек
Ширина : 960 пикс.
Высота : 518 пикс.
Соотношение сторон : 1,853
Частота кадров : 23,976 кадр/сек
Цветовое пространство : YUV
Подвыборка цветности : 4:2:0
Битовая глубина : 8 бит
Тип развёртки : Прогрессивная
Бит/(Пиксели*Кадры) : 0.159
Размер потока : 1,51 Гбайт (69%)
Заголовок : Ant-Man (2015) (New-Team) (Rip by Stalker oK)
Библиотека кодирования : x264 core 146 r2538kMod 121396c
Настройки программы : cabac=1 / ref=13 / deblock=1:-3:-3 / analyse=0x3:0x133 / me=umh / subme=11 / psy=1 / fade_compensate=0.00 / psy_rd=1.00:0.10 / mixed_ref=1 / me_range=48 / chroma_me=1 / trellis=2 / 8x8dct=1 / cqm=0 / deadzone=21,11 / fast_pskip=0 / chroma_qp_offset=-3 / threads=12 / lookahead_threads=3 / sliced_threads=0 / nr=0 / decimate=0 / interlaced=0 / bluray_compat=0 / constrained_intra=0 / fgo=0 / bframes=13 / b_pyramid=2 / b_adapt=2 / b_bias=0 / direct=3 / weightb=1 / open_gop=0 / weightp=2 / keyint=240 / keyint_min=23 / scenecut=40 / intra_refresh=0 / rc_lookahead=60 / rc=2pass / mbtree=0 / bitrate=1892 / ratetol=1.0 / qcomp=0.70 / qpmin=0 / qpmax=69 / qpstep=4 / cplxblur=20.0 / qblur=0.5 / vbv_maxrate=50000 / vbv_bufsize=62500 / nal_hrd=none / filler=0 / ip_ratio=1.40 / pb_ratio=1.30 / aq=3:0.90
Аудио #1
Идентификатор : 2
Формат : AC-3
Формат/Информация : Audio Coding 3
Расширение режима : CM (complete main)
Идентификатор кодека : A_AC3
Продолжительность : 1 ч. 57 м.
Вид битрейта : Постоянный
Битрейт : 384 Кбит/сек
Канал(ы) : 6 канала(ов)
Расположение каналов : Front: L C R, Side: L R, LFE
Частота : 48,0 КГц
Битовая глубина : 16 бит
Метод сжатия : С потерями
Размер потока : 322 Мбайт (14%)
Язык : Russian
Аудио #2
Идентификатор : 3
Формат : AC-3
Формат/Информация : Audio Coding 3
Расширение режима : CM (complete main)
Идентификатор кодека : A_AC3
Продолжительность : 1 ч. 57 м.
Вид битрейта : Постоянный
Битрейт : 384 Кбит/сек
Канал(ы) : 6 канала(ов)
Расположение каналов : Front: L C R, Side: L R, LFE
Частота : 48,0 КГц
Битовая глубина : 16 бит
Метод сжатия : С потерями
Размер потока : 322 Мбайт (14%)
Язык : English
Текст #1
Идентификатор : 4
Формат : UTF-8
Идентификатор кодека : S_TEXT/UTF8
Идентификатор кодека/Информация : UTF-8 Plain Text
Заголовок : Forced
Язык : Russian
Текст #2
Идентификатор : 5
Формат : UTF-8
Идентификатор кодека : S_TEXT/UTF8
Идентификатор кодека/Информация : UTF-8 Plain Text
Язык : Russian
Текст #3
Идентификатор : 6
Формат : UTF-8
Идентификатор кодека : S_TEXT/UTF8
Идентификатор кодека/Информация : UTF-8 Plain Text
Язык : English
Меню
00:00:00.000 : en:Chapter 1
00:02:08.836 : en:Chapter 2
00:08:40.186 : en:Chapter 3
00:15:24.840 : en:Chapter 4
00:19:59.740 : en:Chapter 5
00:27:50.210 : en:Chapter 6
00:33:07.234 : en:Chapter 7
00:38:53.956 : en:Chapter 8
00:44:36.465 : en:Chapter 9
00:49:22.458 : en:Chapter 10
00:57:44.251 : en:Chapter 11
01:00:48.811 : en:Chapter 12
01:06:31.528 : en:Chapter 13
01:23:21.287 : en:Chapter 14
01:34:20.529 : en:Chapter 15
01:47:34.238 : en:Chapter 16
Скриншоты
Скачать

Скачать торрент!

Как скачивать? · Что такое торрент? · Рейтинг и ограничения

Сайт не распространяет и не хранит электронные версии произведений, а лишь предоставляет доступ к создаваемому пользователями каталогу ссылок на торрент-файлы, которые содержат только списки хеш-сумм

[Профиль] [ЛС]
Показать сообщения:    
Ответить на тему

Текущее время: Сегодня 00:11

Часовой пояс: GMT + 4



Вы не можете начинать темы
Вы не можете отвечать на сообщения
Вы не можете редактировать свои сообщения
Вы не можете удалять свои сообщения
Вы не можете голосовать в опросах
Вы не можете прикреплять файлы к сообщениям
Вы не можете скачивать файлы