Акулье озеро / Shark Lake (Джерри Дуган / Yun Je Gyun) [2015, США ,триллер, WEB-DLRip] DVO (Parovoz Production)

Ответить на тему
 
Автор Сообщение

user ®

Стаж: 7 лет 7 месяцев

Сообщений: 20008

Пост Пост: #1 от 22-Ноя-2015 16:48

[Цитировать]

Акулье озеро / Shark Lake
Страна: США
Жанр: триллер
Год выпуска: 2015
Продолжительность: 01:32:33
Перевод: Любительский (двухголосый закадровый) [Parovoz Production]
Оригинальная аудиодорожка: нет
Cубтитры:нет
Режиссер: Джерри Дуган / Yun Je Gyun
В ролях:Дольф Лундгрен, Сара Малакул Лэйн, Джеймс Чалк, Майкл Аарон Миллиган, Ибрахим Ренно мл., Майлз Долеак, Лэнс Э. Николс, Эли Бардха, Melissa Bolona, Патрик Кернс
Описание: Клинт был одним из лучших контрабандистов экзотических видов животных в округе озера Тахо, работал на влиятельного преступного авторитета и старался в одиночку воспитывать маленькую дочь. Однажды копы вышли на него и устроили ночную облаву, но Клинту удалось вырваться на фургоне с ценным грузом. В результате полицейской погони мужчина слетает с дороги в озеро и его арестовывают, а контрабанда исчезает в водной пучине. Задержавшая Клинта женщина-полицейский Мередит Хендрикс - лучший коп департамента шерифа, удочеряет оставшегося без надзора ребёнка и вместе с матерью пытается дать ей лучшую жизнь.

Качество: WEB-DLRip
Контейнер: AVI
Видео: 688x384 (1.79:1), 23.976 fps, XviD build 50 ~987 kbps avg, 0.16 bit/pixel
Аудио: 48 kHz, MPEG Layer 3, 2 ch, ~128.00 kbps avg

MI
Общее
Полное имя : D:\Мои рипы\Акулье_озеро_WEB-DLRip_Некул.avi
Формат : AVI
Формат/Информация : Audio Video Interleave
Размер файла : 745 Мбайт
Продолжительность : 1 ч. 32 м.
Общий поток : 1125 Кбит/сек
Программа кодирования : VirtualDubMod 1.5.10.3 | www.virtualdub-fr.org || (build 2550/release)
Библиотека кодирования : VirtualDubMod build 2550/release
Видео
Идентификатор : 0
Формат : MPEG-4 Visual
Профиль формата : Advanced Simple@L5
Параметр BVOP формата : 2
Параметр QPel формата : Нет
Параметр GMC формата : Без точки перехода
Параметр матрицы формата : Default (MPEG)
Идентификатор кодека : XVID
Идентификатор кодека/Подсказка : XviD
Продолжительность : 1 ч. 32 м.
Битрейт : 988 Кбит/сек
Ширина : 688 пикселей
Высота : 384 пикселя
Соотношение сторон : 16:9
Частота кадров : 23,976 кадра/сек
Цветовое пространство : YUV
Субдискретизация насыщенности : 4:2:0
Битовая глубина : 8 бит
Тип развёртки : Прогрессивная
Метод сжатия : С потерями
Бит/(Пиксели*Кадры) : 0.156
Размер потока : 654 Мбайт (88%)
Библиотека кодирования : XviD 1.2.1 (UTC 2008-12-04)
Аудио
Идентификатор : 1
Формат : MPEG Audio
Версия формата : Version 1
Профиль формата : Layer 3
Идентификатор кодека : 55
Идентификатор кодека/Подсказка : MP3
Продолжительность : 1 ч. 32 м.
Вид битрейта : Постоянный
Битрейт : 128 Кбит/сек
Каналы : 2 канала
Частота : 48,0 КГц
Метод сжатия : С потерями
Размер потока : 84,7 Мбайт (11%)
Выравнивание : Соединение по промежуткам
Продолжительность промежутка : 42 мс. (1,00 видеокадр)
Время предзагрузки промежутка : 504 мс.
Библиотека кодирования : LAME3.99r
Настройки программы : -m s -V 4 -q 2 -lowpass 17 -b 128
Скриншоты
Скачать

Скачать торрент!

Как скачивать? · Что такое торрент? · Рейтинг и ограничения

Сайт не распространяет и не хранит электронные версии произведений, а лишь предоставляет доступ к создаваемому пользователями каталогу ссылок на торрент-файлы, которые содержат только списки хеш-сумм

[Профиль] [ЛС]
Показать сообщения:    
Ответить на тему

Текущее время: Сегодня 12:07

Часовой пояс: GMT + 4



Вы не можете начинать темы
Вы не можете отвечать на сообщения
Вы не можете редактировать свои сообщения
Вы не можете удалять свои сообщения
Вы не можете голосовать в опросах
Вы не можете прикреплять файлы к сообщениям
Вы не можете скачивать файлы