Бегущий в лабиринте: Испытание огнём / Maze Runner: The Scorch Trials (Уэс Болл / Wes Ball) [2015, США, Фантастика, боевик, триллер, BDRip-AVC] Dub + Sub Rus,Eng + Original Eng

Ответить на тему
 
Автор Сообщение

user ®

Стаж: 7 лет 7 месяцев

Сообщений: 20008

Пост Пост: #1 от 22-Ноя-2015 16:48

[Цитировать]

Бегущий в лабиринте: Испытание огнёмMaze Runner: The Scorch Trials«Лабиринт был всего лишь началом»

Страна: США
Жанр: Фантастика, боевик, триллер
Год выпуска: 2015
Продолжительность: 02:11:42
Перевод: Профессиональный (дублированный) Bluray EUR
Cубтитры: русские,английские
Оригинальная аудиодорожка: английский
Режиссер: Уэс Болл / Wes Ball
В ролях: Дилан О’Брайен, Кая Скоделарио, Ки Хонг Ли, Томас Сэнгстер, Декстер Дарден, Алекс Дж. Флорес, Джейкоб Лофленд, Роза Салазар, Джанкарло Эспозито, Патришия Кларксон
Описание: Лабиринт пройден, но Томасу, Терезе, Минхо и прочим глэйдерам не приходится расслабляться. Таинственное руководство ПОРОКА - секретной организации, устроившей гонки на выживание - назначает ребятам новые, смертельно опасные испытания. На сей раз их ждет переход по раскаленной пустыне и встреча с жертвами неизлечимой болезни, которые отличаются буйным нравом и непредсказуемым поведением.
Доп. информация:
Релиз группы:
Качество видео: BDRip-AVC | Бегущий в лабиринте: Испытание огнём / Maze Runner: The Scorch Trials(2015) Blu-ray EUR 1080p AVC DD5.1|HD Club|
Формат видео: MKV
Видео: 1152x480 (2:40:1), 23,976 fps, 2412 Кbps, 0.182 bit/pixe
Аудио: 48 kHz, AC3 Dolby Digital, 3/2 (L,C,R,l,r) + LFE ch, ~448.00 kbps avg DUB
Аудио 2: 48 kHz, AC3 Dolby Digital, 3/2 (L,C,R,l,r) + LFE ch, ~448.00 kbps avg ENG
Формат субтитров: softsub (SRT)
Доп. информация о субтитрах: отключаемые

Знаете ли Вы что
• Фильм снят по мотивам романа Джеймса Дашнера «Испытание огнём» (The Scorch Trials, 2010).
• Австралийская актриса Аделаида Кэйн могла сыграть роль в этом фильме.
• Режиссер Уэс Болл сказал, что фильм будет немного отличаться от книги, однако в третьей части («Бегущий в лабиринте: Лекарство от смерти» (2017)) сюжет не будет расходиться с оригинальной историей.
• Хейли Стайнфелд была готова сыграть роль Бренды, однако в итоге роль досталась Розе Салазар.
• Съёмки фильма начались 27 октября 2014 года в Альбукерке, Нью-Мексико и закончились 27 января 2015 года.
MediaInfo
General
Unique ID : 254754215440900265058916307210136858739 (0xBFA7E0900675DCCD8B84483D699E3073)
Complete name : E:\Мои рипы\Бегущий в лабиринте Испытание огнём\Maze Runner The Scorch Trials by_IVAN@190282.mkv
Format : Matroska
Format version : Version 4 / Version 2
File size : 3.10 GiB
Duration : 2h 11mn
Overall bit rate : 3 375 Kbps
Movie name : Maze Runner The Scorch Trials by_IVAN@190282
Encoded date : UTC 2015-11-22 06:13:41
Writing application : mkvmerge v8.5.2 ('Crosses') 64bit
Writing library : libebml v1.3.3 + libmatroska v1.4.4
Attachements : cover.jpg
DURATION : 02:02:21.876000000
NUMBER_OF_FRAMES : 1485
NUMBER_OF_BYTES : 37342
_STATISTICS_WRITING_APP : mkvmerge v8.5.2 ('Crosses') 64bit
_STATISTICS_WRITING_DATE_UT : 2015-11-22 06:13:41
_STATISTICS_TAGS : BPS DURATION NUMBER_OF_FRAMES NUMBER_OF_BYTES
Video
ID : 1
Format : AVC
Format/Info : Advanced Video Codec
Format profile : High@L4.1
Format settings, CABAC : Yes
Format settings, ReFrames : 11 frames
Codec ID : V_MPEG4/ISO/AVC
Duration : 2h 11mn
Bit rate : 2 412 Kbps
Width : 1 152 pixels
Height : 480 pixels
Display aspect ratio : 2.40:1
Frame rate mode : Constant
Frame rate : 23.976 fps
Color space : YUV
Chroma subsampling : 4:2:0
Bit depth : 8 bits
Scan type : Progressive
Bits/(Pixel*Frame) : 0.182
Stream size : 2.22 GiB (71%)
Title : Maze Runner The Scorch Trials by_IVAN@190282
Writing library : x264 core 148 r2638kMod 7599210
Encoding settings : cabac=1 / ref=11 / deblock=1:-3:-2 / analyse=0x3:0x133 / me=umh / subme=11 / psy=1 / fade_compensate=0.00 / psy_rd=1.00:0.05 / mixed_ref=1 / me_range=48 / chroma_me=1 / trellis=2 / 8x8dct=1 / cqm=0 / deadzone=21,11 / fast_pskip=0 / chroma_qp_offset=-3 / threads=6 / lookahead_threads=6 / sliced_threads=0 / nr=0 / decimate=1 / interlaced=0 / bluray_compat=0 / constrained_intra=0 / fgo=0 / bframes=16 / b_pyramid=2 / b_adapt=2 / b_bias=0 / direct=3 / weightb=1 / open_gop=0 / weightp=2 / keyint=240 / keyint_min=23 / scenecut=40 / intra_refresh=0 / rc_lookahead=60 / rc=crf / mbtree=0 / crf=17.0000 / qcomp=0.60 / qpmin=0 / qpmax=69 / qpstep=4 / vbv_maxrate=50000 / vbv_bufsize=62500 / crf_max=0.0 / nal_hrd=none / filler=0 / ip_ratio=1.40 / pb_ratio=1.30 / aq=2:1.10
Language : English
Default : Yes
Forced : No
Color range : Limited
Color primaries : BT.709
Transfer characteristics : BT.709
Matrix coefficients : BT.709
DURATION : 02:11:42.812000000
NUMBER_OF_FRAMES : 189478
NUMBER_OF_BYTES : 2446347604
_STATISTICS_WRITING_APP : mkvmerge v8.5.2 ('Crosses') 64bit
_STATISTICS_WRITING_DATE_UT : 2015-11-22 06:13:41
_STATISTICS_TAGS : BPS DURATION NUMBER_OF_FRAMES NUMBER_OF_BYTES
Audio #1
ID : 2
Format : AC-3
Format/Info : Audio Coding 3
Mode extension : CM (complete main)
Format settings, Endianness : Big
Codec ID : A_AC3
Duration : 2h 11mn
Bit rate mode : Constant
Bit rate : 448 Kbps
Channel(s) : 6 channels
Channel positions : Front: L C R, Side: L R, LFE
Sampling rate : 48.0 KHz
Compression mode : Lossy
Stream size : 422 MiB (13%)
Title : Rus BD EUR
Default : Yes
Forced : No
Audio #2
ID : 3
Format : AC-3
Format/Info : Audio Coding 3
Mode extension : CM (complete main)
Format settings, Endianness : Big
Codec ID : A_AC3
Duration : 2h 11mn
Bit rate mode : Constant
Bit rate : 448 Kbps
Channel(s) : 6 channels
Channel positions : Front: L C R, Side: L R, LFE
Sampling rate : 48.0 KHz
Compression mode : Lossy
Stream size : 422 MiB (13%)
Title : Eng
Language : English
Default : No
Forced : No
Text #1
ID : 4
Format : UTF-8
Codec ID : S_TEXT/UTF8
Codec ID/Info : UTF-8 Plain Text
Title : Rus
Default : No
Forced : No
Text #2
ID : 5
Format : UTF-8
Codec ID : S_TEXT/UTF8
Codec ID/Info : UTF-8 Plain Text
Title : Eng
Language : English
Default : No
Forced : No
Menu
00:00:00.000 : en:Chapter 1
00:07:33.411 : en:Chapter 2
00:12:00.302 : en:Chapter 3
00:12:59.445 : en:Chapter 4
00:15:55.370 : en:Chapter 5
00:20:56.922 : en:Chapter 6
00:23:15.434 : en:Chapter 7
00:25:52.675 : en:Chapter 8
00:29:59.255 : en:Chapter 9
00:38:14.041 : en:Chapter 10
00:46:43.842 : en:Chapter 11
00:49:46.315 : en:Chapter 12
00:53:19.528 : en:Chapter 13
00:55:10.222 : en:Chapter 14
00:58:07.858 : en:Chapter 15
01:08:42.326 : en:Chapter 16
01:12:22.337 : en:Chapter 17
01:15:45.707 : en:Chapter 18
01:19:10.162 : en:Chapter 19
01:22:46.836 : en:Chapter 20
01:25:09.686 : en:Chapter 21
01:28:07.738 : en:Chapter 22
01:31:15.552 : en:Chapter 23
01:36:02.756 : en:Chapter 24
01:37:35.890 : en:Chapter 25
01:40:35.404 : en:Chapter 26
01:45:16.518 : en:Chapter 27
01:48:44.475 : en:Chapter 28
01:50:31.750 : en:Chapter 29
01:52:36.541 : en:Chapter 30
01:53:08.448 : en:Chapter 31
01:59:16.356 : en:Chapter 32
02:07:11.832 : en:Chapter 33
x264 log
VIDEO ENCODING
x264 [info]: frame I:1212 Avg QP:15.21 size: 64343 PSNR Mean Y:50.05 U:52.93 V:52.51 Avg:50.70 Global:49.79
x264 [info]: frame P:50156 Avg QP:16.82 size: 25167 PSNR Mean Y:48.76 U:52.31 V:51.49 Avg:49.43 Global:48.57
x264 [info]: frame B:138110 Avg QP:18.48 size: 8009 PSNR Mean Y:48.26 U:51.88 V:51.18 Avg:48.98 Global:47.88
x264 [info]: consecutive B-frames: 4.4% 6.1% 15.1% 27.1% 15.2% 20.3% 4.6% 4.0% 1.1% 0.5% 0.4% 0.4% 0.2% 0.1% 0.0% 0.1% 0.5%
x264 [total]: encoded 189478 frames, 7.23 fps, 2476.43 kb/s, duration 7:17:02.38
Скриншот c названием фильма Скриншоты Убедительная просьба пожалуйста кто скачал не бросайте раздачу!!!
Скачать

Скачать торрент!

Как скачивать? · Что такое торрент? · Рейтинг и ограничения

Сайт не распространяет и не хранит электронные версии произведений, а лишь предоставляет доступ к создаваемому пользователями каталогу ссылок на торрент-файлы, которые содержат только списки хеш-сумм

[Профиль] [ЛС]
Показать сообщения:    
Ответить на тему

Текущее время: Сегодня 00:23

Часовой пояс: GMT + 4



Вы не можете начинать темы
Вы не можете отвечать на сообщения
Вы не можете редактировать свои сообщения
Вы не можете удалять свои сообщения
Вы не можете голосовать в опросах
Вы не можете прикреплять файлы к сообщениям
Вы не можете скачивать файлы