Банкет / Вечеринка многочисленной семьи / The Banquet / Hao men ye yan (Альфред Чеунг / Alfred Cheung, Клифтон Ко / Clifton Ko, Цуй Харк / Tsui Hark, Джо Чеунг / Joe Cheung) [1991, Гонконг, комедия, DVDRip] VO (Хоррор Мэйкер)

Ответить на тему
 
Автор Сообщение

user ®

Стаж: 13 лет

Сообщений: 15071

Пост Пост: #1 от 21-Ноя-2015 22:12

[Цитировать]

Банкет / Вечеринка многочисленной семьи / The Banquet / Hao men ye yan
Страна: Гонконг
Жанр: комедия
Год выпуска: 1991
Продолжительность: 01:35:17
Перевод: Одноголосый (закадровый) [Хоррор Мэйкер]
Оригинальная аудиодорожка: нет
Cубтитры: Английские (вшитые), Китайские (вшитые)
Режиссер: Альфред Чеунг / Alfred Cheung, Клифтон Ко / Clifton Ko, Цуй Харк / Tsui Hark, Джо Чеунг / Joe Cheung
В ролях: Саммо Хунг, Леунг Ка-Ян, Анита Муи, Кара Хуи, Карл Мака, Эрик Цанг, Джеки Чеунг, Кэрол Ченг, Ричард Нг, Розамунд Кван, Тони Леунг Чиу-Вэй, Аарон Квок, Айван Лай, Алан Там, Алекс Лау, Альфред Чеунг, Анг СанГонконг, Барри Вонг, Бен Вонг, Бесси Чан, Кван Хой-Сан
Описание: Циничный делец Тсанг Сиу-Чи (Эрик Тсанг) узнает, что в Гонконг приезжает нефтяной магнат – целью последнего является поиск подрядчика на масштабное строительство в Кувейте. По информации, которую получает Тсанг, араб до смерти любит своего отца и падок на все, что связано с крепкими семейными узами, поэтому он решает организовать гигантский банкет в честь дня рождения своего отца (Ричард Нг). Но тут возникает две проблемы – во-первых, со своим отцом Тсанг давно уже не общается, а во-вторых, конкурент Тсанга, Хунг (Саммо Хунг) не намерен уступать прибыльный контракт.
Релиз:

Качество: DVDRip
Контейнер: AVI
Видео: 720x400 (1.80:1), 23.976 fps, XviD build 50 ~1993 kbps avg, 0.29 bit/pixel
Аудио: 48 kHz, AC3 Dolby Digital, 2/0 (L,R) ch, ~192 kbps

MI
Общее
Полное имя : C:\Users\Вячеслав\Desktop\Банкет_DVDRip_Некул.avi
Формат : AVI
Формат/Информация : Audio Video Interleave
Размер файла : 1,46 Гбайт
Продолжительность : 1 ч. 35 м.
Общий поток : 2195 Кбит/сек
Программа кодирования : VirtualDubMod 1.5.10.3 | www.virtualdub-fr.org || (build 2550/release)
Библиотека кодирования : VirtualDubMod build 2550/release
Видео
Идентификатор : 0
Формат : MPEG-4 Visual
Профиль формата : Advanced Simple@L5
Параметр BVOP формата : 1
Параметр QPel формата : Нет
Параметр GMC формата : Без точки перехода
Параметр матрицы формата : Default (MPEG)
Идентификатор кодека : XVID
Идентификатор кодека/Подсказка : XviD
Продолжительность : 1 ч. 35 м.
Битрейт : 1993 Кбит/сек
Ширина : 720 пикселей
Высота : 400 пикселей
Соотношение сторон : 16:9
Частота кадров : 23,976 кадра/сек
Цветовое пространство : YUV
Субдискретизация насыщенности : 4:2:0
Битовая глубина : 8 бит
Тип развёртки : Прогрессивная
Метод сжатия : С потерями
Бит/(Пиксели*Кадры) : 0.289
Размер потока : 1,33 Гбайт (91%)
Библиотека кодирования : XviD 1.2.1 (UTC 2008-12-04)
Аудио
Идентификатор : 1
Формат : AC-3
Формат/Информация : Audio Coding 3
Расширение режима : CM (complete main)
Параметр Endianness формата : Big
Идентификатор кодека : 2000
Продолжительность : 1 ч. 35 м.
Вид битрейта : Постоянный
Битрейт : 192 Кбит/сек
Каналы : 2 канала
Расположение каналов : Front: L R
Частота : 48,0 КГц
Битовая глубина : 16 бит
Метод сжатия : С потерями
Размер потока : 131 Мбайт (9%)
Выравнивание : Разделение по промежуткам
Продолжительность промежутка : 42 мс. (1,00 видеокадр)
Время предзагрузки промежутка : 500 мс.
Скриншоты
Скачать

Скачать торрент! Банкет / Вечеринка многочисленной семьи / The Banquet / Hao men ye yan (Альфред Чеунг / Alfred Cheung, Клифтон Ко / Clifton Ko, Цуй Харк / Tsui Hark, Джо Чеунг / Joe Cheung) [1991, Гонконг, комедия, DVDRip] VO (Хоррор Мэйкер)

Как скачивать? · Что такое торрент? · Рейтинг и ограничения

Сайт не распространяет и не хранит электронные версии произведений, а лишь предоставляет доступ к создаваемому пользователями каталогу ссылок на торрент-файлы, которые содержат только списки хеш-сумм

[Профиль] [ЛС]
Показать сообщения:    
Ответить на тему

Текущее время: Сегодня 16:21

Часовой пояс: GMT + 4



Вы не можете начинать темы
Вы не можете отвечать на сообщения
Вы не можете редактировать свои сообщения
Вы не можете удалять свои сообщения
Вы не можете голосовать в опросах
Вы не можете прикреплять файлы к сообщениям
Вы не можете скачивать файлы