Будь мужиком / Man Up (Бен Палмер / Ben Palmer) [2015, Великобритания, Франция, романтическая мелодрама, комедия, HDRip] VO (ViruseProject)

Ответить на тему
 
Автор Сообщение

user ®

Стаж: 7 лет 7 месяцев

Сообщений: 20008

Пост Пост: #1 от 20-Ноя-2015 12:03

[Цитировать]

Будь мужиком / Man Up
Год выпуска: 2015
Страна: Великобритания, Франция
Жанр: романтическая мелодрама, комедия
Продолжительность: 01:27:54
Перевод: Одноголосый закадровый ViruseProject
Субтитры: нет
Режиссёр: Бен Палмер / Ben Palmer
В ролях: Саймон Пегг, Лэйк Белл, Оливия Уильямс, Генри Ллойд-Хьюз, Офелия Ловибонд, Рори Киннер, Шэрон Хорган, Стивен Кэмпбелл Мур, Дин-Чарльз Чепмен, Кен Стотт и др.
Описание: Одинокая, замкнутая в себе девушка, тридцати четырех лет от роду по ошибке попадает на свидание вслепую. И вместо того, чтобы признаться парню в том, что она не та за кого он ее принял, она начинает играть роль, что в последствии приводит к комичным ситуациям и любви, так сказать "с первого псевдосвидания".

скачать СЕМПЛ с multi-up
Качество: HDRip
Формат: AVI
Видео кодек: XviD
Аудио кодек: AC3
Видео: 720x304 (2.37:1), 24.000 fps, XviD build 50 ~1985 kbps avg, 0.38 bit/pixel
Аудио: 48 kHz, AC3, 2/0 (L,R) ch, 384 Kbps
MediaInfo
General
Complete name : E:\ОЗВУЧКА\ФИЛЬМЫ\Man Up\Man.Up.2015.HDRip.ViruseProject.avi
Format : AVI
Format/Info : Audio Video Interleave
File size : 1.46 GiB
Duration : 1h 27mn
Overall bit rate : 2 379 Kbps
Writing application : VirtualDubMod 1.5.10.2 (build 2540/release)
Writing library : VirtualDubMod build 2540/release
Video
ID : 0
Format : MPEG-4 Visual
Format profile : Advanced Simple@L5
Format settings, BVOP : 1
Format settings, QPel : No
Format settings, GMC : No warppoints
Format settings, Matrix : Default (MPEG)
Codec ID : XVID
Codec ID/Hint : XviD
Duration : 1h 27mn
Bit rate : 1 986 Kbps
Width : 720 pixels
Height : 304 pixels
Display aspect ratio : 2.35:1
Frame rate : 24.000 fps
Color space : YUV
Chroma subsampling : 4:2:0
Bit depth : 8 bits
Scan type : Progressive
Compression mode : Lossy
Bits/(Pixel*Frame) : 0.378
Stream size : 1.22 GiB (83%)
Writing library : XviD 1.2.1 (UTC 2008-12-04)
Audio
ID : 1
Format : AC-3
Format/Info : Audio Coding 3
Mode extension : CM (complete main)
Format settings, Endianness : Big
Codec ID : 2000
Duration : 1h 27mn
Bit rate mode : Constant
Bit rate : 384 Kbps
Channel(s) : 2 channels
Channel positions : Front: L R
Sampling rate : 48.0 KHz
Compression mode : Lossy
Stream size : 241 MiB (16%)
Alignment : Split accross interleaves
Interleave, duration : 42 ms (1.00 video frame)
Interleave, preload duratio : 500 ms
Скриншоты
Скачать

Скачать торрент!

Как скачивать? · Что такое торрент? · Рейтинг и ограничения

Сайт не распространяет и не хранит электронные версии произведений, а лишь предоставляет доступ к создаваемому пользователями каталогу ссылок на торрент-файлы, которые содержат только списки хеш-сумм

[Профиль] [ЛС]
Показать сообщения:    
Ответить на тему

Текущее время: Сегодня 22:32

Часовой пояс: GMT + 4



Вы не можете начинать темы
Вы не можете отвечать на сообщения
Вы не можете редактировать свои сообщения
Вы не можете удалять свои сообщения
Вы не можете голосовать в опросах
Вы не можете прикреплять файлы к сообщениям
Вы не можете скачивать файлы