Хитмэн: Агент 47 / Hitman: Agent 47 (Александр Бах / Aleksander Bach) [2015, США, Германия, Индонезия, Боевик, фантастика, триллер, BDRip-AVC] Dub + Sub Rus,Eng + Original Eng

Ответить на тему
 
Автор Сообщение

user ®

Стаж: 7 лет 7 месяцев

Сообщений: 20008

Пост Пост: #1 от 20-Ноя-2015 12:03

[Цитировать]

Хитмэн: Агент 47Hitman: Agent 47

Страна: США, Германия, Индонезия
Жанр: Боевик, фантастика, триллер
Год выпуска: 2015
Продолжительность: 01:36:16
Перевод: Профессиональный (дублированный) Bluray CEE
Cубтитры: русские,английские
Оригинальная аудиодорожка: английский
Режиссер: Александр Бах / Aleksander Bach
В ролях: Руперт Френд, Ханна Уэр, Закари Куинто, Киран Хайндс, Томас Кречман, Анджела Бейби, Дэн Баккедаль, Шарлин Бек, Михаэль Борнхюттер, Мелисса Бротон
Описание: История об элитном убийце, созданном при помощи генной инженерии, который объединяется с женщиной, чтобы помочь ей найти отца и раскрыть тайну своего происхождения.
Доп. информация:
Релиз группы:
Качество видео: BDRip-AVC | Хитмэн: Агент 47 / Hitman: Agent 47(2015) Blu-ray CEE 1080p AVC DD5.1|HD Club|
Формат видео: MKV
Видео: 1146x480 (2:40:1), 23,976 fps, 3496 Кbps, 0.265 bit/pixe
Аудио: 48 kHz, AC3 Dolby Digital, 3/2 (L,C,R,l,r) + LFE ch, ~448.00 kbps avg DUB
Аудио 2: 48 kHz, AC3 Dolby Digital, 3/2 (L,C,R,l,r) + LFE ch, ~448.00 kbps avg ENG
Формат субтитров: softsub (SRT)
Доп. информация о субтитрах: отключаемые

Знаете ли Вы что
• В основе фильма лежит серия видеоигр «Hitman» датской компании «IO Interactive».
• Фильм стал режиссерским дебютом Александра Баха.
• Главную роль должен был исполнить Пол Уокер.
• В фильме есть прямая отсылка к видеоигровой франшизе в сцене, где желтая резиновая утка плавает в ванной вместе с тостером.
• Во время съемок одной сцены, когда Руперт Френд стрелял холостыми патронами, горячая гильза отскочила от пола, попала актеру в голову и слегка обожгла его.
• Члены боевого подразделения носят пейнтбольные маски «Dye I3».
Ошибки в фильме
• В начале боя между агентом 47 и Джоном Смитом (Закари Куинто) на станции для испытания двигателей, четко видно, что вместо Джона Смита играет его дублер.
MediaInfo
General
Unique ID : 233945811908134717604098284334075260585 (0xB000530F45B2459AB13097201F9AAEA9)
Complete name : E:\Мои рипы\Хитмэн Агент 47\Hitman Agent 47 by_IVAN@190282.mkv
Format : Matroska
Format version : Version 4 / Version 2
File size : 3.01 GiB
Duration : 1h 36mn
Overall bit rate : 4 482 Kbps
Movie name : Hitman Agent 47 by_IVAN@190282
Encoded date : UTC 2015-11-20 00:14:45
Writing application : mkvmerge v8.5.2 ('Crosses') 64bit
Writing library : libebml v1.3.3 + libmatroska v1.4.4
Attachements : cover.jpg
DURATION : 01:34:17.193000000
NUMBER_OF_FRAMES : 1111
NUMBER_OF_BYTES : 30216
_STATISTICS_WRITING_APP : mkvmerge v8.5.2 ('Crosses') 64bit
_STATISTICS_WRITING_DATE_UT : 2015-11-20 00:14:45
_STATISTICS_TAGS : BPS DURATION NUMBER_OF_FRAMES NUMBER_OF_BYTES
Video
ID : 1
Format : AVC
Format/Info : Advanced Video Codec
Format profile : High@L4.1
Format settings, CABAC : Yes
Format settings, ReFrames : 11 frames
Codec ID : V_MPEG4/ISO/AVC
Duration : 1h 36mn
Bit rate : 3 496 Kbps
Width : 1 146 pixels
Height : 480 pixels
Display aspect ratio : 2.40:1
Frame rate mode : Constant
Frame rate : 23.976 fps
Color space : YUV
Chroma subsampling : 4:2:0
Bit depth : 8 bits
Scan type : Progressive
Bits/(Pixel*Frame) : 0.265
Stream size : 2.35 GiB (78%)
Title : Hitman Agent 47 by_IVAN@190282
Writing library : x264 core 148 r2638kMod 7599210
Encoding settings : cabac=1 / ref=11 / deblock=1:-3:-2 / analyse=0x3:0x133 / me=umh / subme=11 / psy=1 / fade_compensate=0.00 / psy_rd=1.00:0.05 / mixed_ref=1 / me_range=48 / chroma_me=1 / trellis=2 / 8x8dct=1 / cqm=0 / deadzone=21,11 / fast_pskip=0 / chroma_qp_offset=-3 / threads=6 / lookahead_threads=6 / sliced_threads=0 / nr=0 / decimate=1 / interlaced=0 / bluray_compat=0 / constrained_intra=0 / fgo=0 / bframes=16 / b_pyramid=2 / b_adapt=2 / b_bias=0 / direct=3 / weightb=1 / open_gop=0 / weightp=2 / keyint=240 / keyint_min=23 / scenecut=40 / intra_refresh=0 / rc_lookahead=60 / rc=crf / mbtree=0 / crf=17.1000 / qcomp=0.60 / qpmin=0 / qpmax=69 / qpstep=4 / vbv_maxrate=50000 / vbv_bufsize=62500 / crf_max=0.0 / nal_hrd=none / filler=0 / ip_ratio=1.40 / pb_ratio=1.30 / aq=2:1.10
Language : English
Default : Yes
Forced : No
Color range : Limited
Color primaries : BT.709
Transfer characteristics : BT.709
Matrix coefficients : BT.709
DURATION : 01:36:16.771000000
NUMBER_OF_FRAMES : 138504
NUMBER_OF_BYTES : 2587405803
_STATISTICS_WRITING_APP : mkvmerge v8.5.2 ('Crosses') 64bit
_STATISTICS_WRITING_DATE_UT : 2015-11-20 00:14:45
_STATISTICS_TAGS : BPS DURATION NUMBER_OF_FRAMES NUMBER_OF_BYTES
Audio #1
ID : 2
Format : AC-3
Format/Info : Audio Coding 3
Mode extension : CM (complete main)
Format settings, Endianness : Big
Codec ID : A_AC3
Duration : 1h 36mn
Bit rate mode : Constant
Bit rate : 448 Kbps
Channel(s) : 6 channels
Channel positions : Front: L C R, Side: L R, LFE
Sampling rate : 48.0 KHz
Compression mode : Lossy
Stream size : 309 MiB (10%)
Title : BDCEE
Default : Yes
Forced : No
Audio #2
ID : 3
Format : AC-3
Format/Info : Audio Coding 3
Mode extension : CM (complete main)
Format settings, Endianness : Big
Codec ID : A_AC3
Duration : 1h 36mn
Bit rate mode : Constant
Bit rate : 448 Kbps
Channel(s) : 6 channels
Channel positions : Front: L C R, Side: L R, LFE
Sampling rate : 48.0 KHz
Compression mode : Lossy
Stream size : 309 MiB (10%)
Title : Eng
Language : English
Default : No
Forced : No
Text #1
ID : 4
Format : UTF-8
Codec ID : S_TEXT/UTF8
Codec ID/Info : UTF-8 Plain Text
Title : Rus
Default : No
Forced : No
Text #2
ID : 5
Format : UTF-8
Codec ID : S_TEXT/UTF8
Codec ID/Info : UTF-8 Plain Text
Title : Eng
Language : English
Default : No
Forced : No
Menu
00:00:00.000 : en:Chapter 1
00:07:33.411 : en:Chapter 2
00:12:00.302 : en:Chapter 3
00:12:59.445 : en:Chapter 4
00:15:55.370 : en:Chapter 5
00:20:56.922 : en:Chapter 6
00:23:15.434 : en:Chapter 7
00:25:52.675 : en:Chapter 8
00:29:59.255 : en:Chapter 9
00:38:14.041 : en:Chapter 10
00:46:43.842 : en:Chapter 11
00:49:46.315 : en:Chapter 12
00:53:19.528 : en:Chapter 13
00:55:10.222 : en:Chapter 14
00:58:07.858 : en:Chapter 15
01:08:42.326 : en:Chapter 16
01:12:22.337 : en:Chapter 17
01:15:45.707 : en:Chapter 18
01:19:10.162 : en:Chapter 19
01:22:46.836 : en:Chapter 20
01:25:09.686 : en:Chapter 21
01:28:07.738 : en:Chapter 22
x264 log
VIDEO ENCODING
x264 [info]: frame I:1096 Avg QP:15.08 size: 91324 PSNR Mean Y:48.17 U:50.83 V:50.79 Avg:48.87 Global:48.07
x264 [info]: frame P:36729 Avg QP:16.48 size: 34355 PSNR Mean Y:46.92 U:49.83 V:49.66 Avg:47.64 Global:46.75
x264 [info]: frame B:100679 Avg QP:18.84 size: 12172 PSNR Mean Y:45.91 U:48.94 V:48.97 Avg:46.67 Global:45.80
x264 [info]: consecutive B-frames: 5.8% 6.9% 11.4% 20.0% 14.6% 28.9% 5.7% 1.5% 1.5% 0.9% 0.8% 0.3% 0.5% 0.5% 0.2% 0.1% 0.2%
x264 [total]: encoded 138504 frames, 2.66 fps, 3583.19 kb/s, duration 14:28:31.05
Скриншот c названием фильма Скриншоты Сравнения
Sours by_IVAN@190282 [url=http://***/forum/viewtopic.php?t=5119527,%E0]BDRip Stalker oK[/url] [url=http://***/forum/viewtopic.php?t=5119527]http://***/forum/viewtopic.php?t=5119527[/url] VS http://screenshotcomparison.com/comparison/151190/picture:0Sours VS by_IVAN@190282 http://screenshotcomparison.com/comparison/151191/picture:0
Убедительная просьба пожалуйста кто скачал не бросайте раздачу!!!
Скачать

Скачать торрент!

Как скачивать? · Что такое торрент? · Рейтинг и ограничения

Сайт не распространяет и не хранит электронные версии произведений, а лишь предоставляет доступ к создаваемому пользователями каталогу ссылок на торрент-файлы, которые содержат только списки хеш-сумм

[Профиль] [ЛС]
Показать сообщения:    
Ответить на тему

Текущее время: Сегодня 10:07

Часовой пояс: GMT + 4



Вы не можете начинать темы
Вы не можете отвечать на сообщения
Вы не можете редактировать свои сообщения
Вы не можете удалять свои сообщения
Вы не можете голосовать в опросах
Вы не можете прикреплять файлы к сообщениям
Вы не можете скачивать файлы