Бегущий в лабиринте: Испытание огнём / Maze Runner: The Scorch Trials (Уэс Болл / Wes Ball) [2015, США, фантастика, боевик, триллер, HDRip] Dub

Ответить на тему
 
Автор Сообщение

user ®

Стаж: 7 лет 7 месяцев

Сообщений: 20008

Пост Пост: #1 от 20-Ноя-2015 12:03

[Цитировать]

Бегущий в лабиринте: Испытание огнём / Maze Runner: The Scorch Trials
Страна: США
Жанр: фантастика, боевик, триллер
Год выпуска: 2015
Продолжительность: 02:11:42
Перевод: Профессиональный (дублированный) лицензия
Cубтитры: нет
Оригинальная аудиодорожка: нет
Режиссер: Уэс Болл / Wes Ball
В ролях: Дилан О’Брайен, Ки Хонг Ли, Кая Скоделарио, Томас Сэнгстер, Декстер Дарден, Алекс Дж. Флорес, Джейкоб Лофленд, Роза Салазар, Джанкарло Эспозито, Патришия Кларксон
Описание: Лабиринт пройден, но Томасу, Терезе, Минхо и прочим глэйдерам не приходится расслабляться. Таинственное руководство ПОРОКА — секретной организации, устроившей гонки на выживание — назначает ребятам новые, смертельно опасные испытания. На сей раз их ждет переход по раскаленной пустыне и встреча с жертвами неизлечимой болезни, которые отличаются буйным нравом и непредсказуемым поведением.
Сэмпл: http://multi-up.com/1076025
Качество видео: HDRip (исходник не известен)
Формат видео: AVI
Видео: Xvid 720x304 23.98fps 1 028 Kbps
Аудио: Dolby AC3 48000Hz 6ch 448kbps
MediaInfo
Format : AVI
Format/Info : Audio Video Interleave
File size : 1.37 GiB
Duration : 2h 11mn
Overall bit rate : 1 485 Kbps
Writing application : VirtualDubMod 1.5.10.2 (build 2540/release)
Writing library : VirtualDubMod build 2540/release
Video
ID : 0
Format : MPEG-4 Visual
Format profile : AdvancedSimple@L5
Format settings, BVOP : Yes
Format settings, QPel : No
Format settings, GMC : No warppoints
Format settings, Matrix : Default (MPEG)
Codec ID : XVID
Codec ID/Hint : XviD
Duration : 2h 11mn
Bit rate : 1 028 Kbps
Width : 720 pixels
Height : 304 pixels
Display aspect ratio : 2.35:1
Frame rate : 23.976 fps
Resolution : 24 bits
Colorimetry : 4:2:0
Scan type : Progressive
Bits/(Pixel*Frame) : 0.196
Stream size : 968 MiB (69%)
Writing library : XviD 1.2.1 (UTC 2008-12-04)
Audio
ID : 1
Format : AC-3
Format/Info : Audio Coding 3
Codec ID : 2000
Duration : 2h 11mn
Bit rate mode : Constant
Bit rate : 448 Kbps
Channel(s) : 6 channels
Channel positions : Front: L C R, Surround: L R, LFE
Sampling rate : 48.0 KHz
Stream size : 422 MiB (30%)
Alignment : Split accross interleaves
Interleave, duration : 42 ms (1.00 video frame)
Interleave, preload duration : 500 ms
Скриншот c названием фильма Скриншоты
Скачать

Скачать торрент!

Как скачивать? · Что такое торрент? · Рейтинг и ограничения

Сайт не распространяет и не хранит электронные версии произведений, а лишь предоставляет доступ к создаваемому пользователями каталогу ссылок на торрент-файлы, которые содержат только списки хеш-сумм

[Профиль] [ЛС]
Показать сообщения:    
Ответить на тему

Текущее время: Сегодня 08:06

Часовой пояс: GMT + 4



Вы не можете начинать темы
Вы не можете отвечать на сообщения
Вы не можете редактировать свои сообщения
Вы не можете удалять свои сообщения
Вы не можете голосовать в опросах
Вы не можете прикреплять файлы к сообщениям
Вы не можете скачивать файлы