Ода моему отцу / Международный рынок / Ode to My Father / Gukjesijang / The International Market (Юн Дже-Гюн / Yun Je Gyun) [2014, Южная Корея, драма, мелодрама, военный, HDRip] DVO

Ответить на тему
 
Автор Сообщение

user ®

Стаж: 13 лет

Сообщений: 15071

Пост Пост: #1 от 19-Ноя-2015 14:24

[Цитировать]

Ода моему отцу / Международный рынок / Ode to My Father / Gukjesijang / The International Marke
Страна: Корея Южная
Жанр: , драма, мелодрама, военный
Год выпуска: 2014
Продолжительность: 02:06:26
Перевод: Любительский (двухголосый закадровый) [den904, DeadSno] по переводу [sergik1]
Оригинальная аудиодорожка: нет
Cубтитры:нет
Режиссер: Юн Дже-Гюн / Yun Je Gyun
В ролях: Хван Чжун-мин, Юн-Чжин Ким, О Даль-су, Чжун Чжин-юн, Чжан Юн-нам, Ра Ми-ран, Ким Сыль-гье, Ли Хьюн, Ким Мин-чжэ, Хван Сон-ва, Ум Чжи-сон, Щин Рин-а, Ли Йе-ын, Чой Чжэ-суп, Чжун Чюн-ги, Йу Чжун-о, Мэн Се-чхан, Хон Сок-йён, Стелла Чхве Ким, Ко Юн, Пак Сон-ун, Хван Ин-чжун, Чжун Йюн-о
Описание: 953 год. Разгар Корейской войны. Маленький Ток-су и его семья бегут из порта Хыннам. Однако отец и младшая сестра мальчика пропадают без вести во время отбытия корабля. Ток-су становится главой семьи. Годы идут, мальчик взрослеет, его единственное желание – найти пропавших отца и сестру…
Фильм повествует об истории жизни Ток-су. О том, что он делал и, через что ему пришлось пройти ради обеспечения своей семьи. 60 лет жизни, смеха, радости, любви, горя и страдания…
Релиз:

Качество: HDRip
Контейнер: AVI
Видео: 720x304 (2.37:1), 23.976 fps, XviD build 64 ~1233 kbps avg, 0.23 bit/pixel
Аудио: 48 kHz, AC3 Dolby Digital, 3/2 (L,C,R,l,r) + LFE ch, ~448 kbps

Сравнение
[url=http://***/forum/viewtopic.php?t=5041482]http://***/forum/viewtopic.php?t=5041482[/url] http://screenshotcomparison.com/comparison/150959
MI
Общее
Полное имя : D:\Мои рипы\Ода моему отцу_HDRip_Некул.avi
Формат : AVI
Формат/Информация : Audio Video Interleave
Профиль формата : OpenDML
Размер файла : 1,49 Гбайт
Продолжительность : 2 ч. 6 м.
Общий поток : 1688 Кбит/сек
Название фильма : Ode to My Father [2014] [720p] DVO
Программа кодирования : Lavf56.25.101
Видео
Идентификатор : 0
Формат : MPEG-4 Visual
Профиль формата : Advanced Simple@L5
Параметр BVOP формата : 1
Параметр QPel формата : Нет
Параметр GMC формата : Без точки перехода
Параметр матрицы формата : Default (H.263)
Идентификатор кодека : XVID
Идентификатор кодека/Подсказка : XviD
Продолжительность : 2 ч. 6 м.
Битрейт : 1229 Кбит/сек
Ширина : 720 пикселей
Высота : 304 пикселя
Соотношение сторон : 2,40:1
Частота кадров : 23,976 кадра/сек
Цветовое пространство : YUV
Субдискретизация насыщенности : 4:2:0
Битовая глубина : 8 бит
Тип развёртки : Прогрессивная
Метод сжатия : С потерями
Бит/(Пиксели*Кадры) : 0.234
Размер потока : 1,08 Гбайт (73%)
Заголовок : profile.php?mode=viewprofile&u=22488948 || RG Orient Extreme Films
Библиотека кодирования : XviD 64
Аудио
Идентификатор : 1
Формат : AC-3
Формат/Информация : Audio Coding 3
Расширение режима : CM (complete main)
Параметр Endianness формата : Big
Идентификатор кодека : 2000
Продолжительность : 2 ч. 6 м.
Вид битрейта : Постоянный
Битрейт : 448 Кбит/сек
Каналы : 6 каналов
Расположение каналов : Front: L C R, Side: L R, LFE
Частота : 48,0 КГц
Битовая глубина : 16 бит
Метод сжатия : С потерями
Размер потока : 405 Мбайт (27%)
Выравнивание : Соединение по промежуткам
Продолжительность промежутка : 32 мс. (0,77 видеокадр)
Заголовок : DVO [den904, DeadSno]
Скриншоты
Скачать

Скачать торрент! Ода моему отцу / Международный рынок / Ode to My Father / Gukjesijang / The International Market (Юн Дже-Гюн / Yun Je Gyun) [2014, Южная Корея, драма, мелодрама, военный, HDRip] DVO

Как скачивать? · Что такое торрент? · Рейтинг и ограничения

Сайт не распространяет и не хранит электронные версии произведений, а лишь предоставляет доступ к создаваемому пользователями каталогу ссылок на торрент-файлы, которые содержат только списки хеш-сумм

[Профиль] [ЛС]
Показать сообщения:    
Ответить на тему

Текущее время: Сегодня 12:05

Часовой пояс: GMT + 4



Вы не можете начинать темы
Вы не можете отвечать на сообщения
Вы не можете редактировать свои сообщения
Вы не можете удалять свои сообщения
Вы не можете голосовать в опросах
Вы не можете прикреплять файлы к сообщениям
Вы не можете скачивать файлы