Безудержная / Abandoned (Майкл Фейфер / Michael Feifer) [2010, США, триллер, драма, детектив, HDRip] DVO

Ответить на тему
 
Автор Сообщение

user ®

Стаж: 7 лет 7 месяцев

Сообщений: 20008

Пост Пост: #1 от 19-Дек-2010 05:17

[Цитировать]

Безудержная / Abandoned
Страна: США
Жанр: триллер, драма, детектив
Год выпуска: 2010
Продолжительность: 01:28:05
Перевод: Профессиональный (двухголосый закадровый)
Cубтитры: нет
Режиссер: Майкл Фейфер / Michael Feifer
В ролях: Бриттани Мерфи, Дин Кэйн, Стэн Блай, Питер Богданович, Javen Campbell, Кристал Леа Чакон, Caia Coley, Кэтерин Деланси, Дайан Хили, Кристен Керр
Описание: Это история женщины по имени Мэри, муж которой — хирург, который однажды исчезает, и это обстоятельство вынуждает героиню заниматься активными поисками. Найдя доказательства, что он жив, Мэри начинает распутывать клубок загадок и вскоре начинает подозревать, что все случившееся не реально, а происходит лишь в ее больном сознании…
Сэмпл: http://onemove.ru/30903/
Качество видео: HDRip
Формат видео: AVI
Видео: 656x368 (1.78:1); 23.976 fps; XviD build 50; 1047 kbps avg; 0.18 bit/pixel
Аудио: 48 kHz, MPEG Layer 3, 2 ch, ~128.00 kbps avg

MediaInfo

General
Complete name : C:\Bezuderzhnaja.avi
Format : AVI
Format/Info : Audio Video Interleave
File size : 747 MiB
Duration : 1h 28mn
Overall bit rate : 1 185 Kbps
Writing application : VirtualDubMod 1.5.10.3 | www.virtualdub-fr.org || (build 2550/release)
Writing library : VirtualDubMod build 2550/release
Video
ID : 0
Format : MPEG-4 Visual
Format profile : Advanced Simple@L5
Format settings, BVOP : Yes
Format settings, QPel : No
Format settings, GMC : No warppoints
Format settings, Matrix : Custom
Codec ID : XVID
Codec ID/Hint : XviD
Duration : 1h 28mn
Bit rate : 1 048 Kbps
Width : 656 pixels
Height : 368 pixels
Display aspect ratio : 16:9
Frame rate : 23.976 fps
Color space : YUV
Chroma subsampling : 4:2:0
Bit depth : 8 bits
Scan type : Progressive
Bits/(Pixel*Frame) : 0.181
Stream size : 660 MiB (88%)
Writing library : XviD 1.2.1 (UTC 2008-12-04)
Audio
ID : 1
Format : MPEG Audio
Format version : Version 1
Format profile : Layer 3
Codec ID : 55
Codec ID/Hint : MP3
Duration : 1h 28mn
Bit rate mode : Constant
Bit rate : 128 Kbps
Channel(s) : 2 channels
Sampling rate : 48.0 KHz
Stream size : 80.7 MiB (11%)
Alignment : Aligned on interleaves
Interleave, duration : 42 ms (1.00 video frame)
Interleave, preload duration : 504 ms
Writing library : LAME3.98r
Encoding settings : -m s -V 4 -q 2 -lowpass 17 -b 128

Скриншот c названием фильма

Скриншоты

Скачать

Скачать торрент!

Как скачивать? · Что такое торрент? · Рейтинг и ограничения

Сайт не распространяет и не хранит электронные версии произведений, а лишь предоставляет доступ к создаваемому пользователями каталогу ссылок на торрент-файлы, которые содержат только списки хеш-сумм

[Профиль] [ЛС]
Показать сообщения:    
Ответить на тему

Текущее время: Сегодня 06:06

Часовой пояс: GMT + 4



Вы не можете начинать темы
Вы не можете отвечать на сообщения
Вы не можете редактировать свои сообщения
Вы не можете удалять свои сообщения
Вы не можете голосовать в опросах
Вы не можете прикреплять файлы к сообщениям
Вы не можете скачивать файлы