Эверест / Everest (Бальтасар Кормакур / Baltasar Kormákur ) [2015, США, Великобритания, триллер, драма, приключения, WEB-DLRip] DUB (iTunes)

Ответить на тему
 
Автор Сообщение

user ®

Стаж: 7 лет 7 месяцев

Сообщений: 20008

Пост Пост: #1 от 19-Ноя-2015 14:24

[Цитировать]

Эверест / Everest
Год выпуска: 2015
Выпущено: США, Великобритания
Жанр: триллер, драма, приключения
Продолжительность: 02:00:54
Перевод: Профессиональный (полное дублирование) iTunes)
Режиссер: Бальтасар Кормакур / Baltasar Kormákur
В ролях: Джейк Джилленхол, Робин Райт, Кира Найтли, Джош Бролин, Сэм Уортингтон, Клайв Стэнден
Описание: Эверест — великая неприступная гора, покорить вершину которой мечтают многие профессиональные скалолазы. Одна из экспедиций на ее вершину закончилась настоящей трагедией, однако этот факт не останавливает отважных альпинистов.
Роб Холл долгое время мечтал покорить эту неприступную гору и однажды ему предоставился такой шанс. Собрав группу из лучших альпинистов, он как никогда приблизился к своей заветной мечте. Все эти люди полны мужества и отваги и они не остановятся ни перед чем, пока не поднимутся на вершину Эвереста. Но даже если эта гора покорится им, смогут ли они вернуться обратно живыми и невредимыми?..
Качество: WEB-DLRip
Формат: AVI
Видео: MPEG4, XviD, 720x304 (2.35:1), 23.976 fps, 1333 Kbps (0.241 bit/pixel)
Аудио : AC-3, 48.0 KHz, 6 ch, 384 Kbps, CBR
http://sendfile.su/1175030

ОтчетМедиаИнфо
Общее
Полное имя : D:\Торенты\3B3P3Ct.2015.D.WEB-DLRip.1.46GB.avi
Формат : AVI
Формат/Информация : Audio Video Interleave
Размер файла : 1,46 Гбайт
Продолжительность : 2 ч. 1 м.
Общий поток : 1726 Кбит/сек
Программа кодирования : VirtualDubMod 1.5.10.3 | www.virtualdub-fr.org || (build 2550/release)
Библиотека кодирования : VirtualDubMod build 2550/release
Видео
Идентификатор : 0
Формат : MPEG-4 Visual
Профиль формата : Advanced Simple@L5
Параметр BVOP формата : 2
Параметр QPel формата : Нет
Параметр GMC формата : Без точки перехода
Параметр матрицы формата : Default (MPEG)
Идентификатор кодека : XVID
Идентификатор кодека/Подсказка : XviD
Продолжительность : 2 ч. 1 м.
Битрейт : 1265 Кбит/сек
Ширина : 720 пикселей
Высота : 304 пикселя
Соотношение сторон : 2,35:1
Частота кадров : 23,976 кадра/сек
Цветовое пространство : YUV
Субдискретизация насыщенности : 4:2:0
Битовая глубина : 8 бит
Тип развёртки : Прогрессивная
Метод сжатия : С потерями
Бит/(Пиксели*Кадры) : 0.241
Размер потока : 1,07 Гбайт (73%)
Библиотека кодирования : XviD 1.2.1 (UTC 2008-12-04)
Аудио
Идентификатор : 1
Формат : AC-3
Формат/Информация : Audio Coding 3
Расширение режима : CM (complete main)
Параметр Endianness формата : Big
Идентификатор кодека : 2000
Продолжительность : 2 ч. 1 м.
Вид битрейта : Постоянный
Битрейт : 384 Кбит/сек
Каналы : 6 каналов
Расположение каналов : Front: L C R, Side: L R, LFE
Частота : 48,0 КГц
Битовая глубина : 16 бит
Метод сжатия : С потерями
Размер потока : 333 Мбайт (22%)
Выравнивание : Разделение по промежуткам
Скриншоты
Скачать

Скачать торрент!

Как скачивать? · Что такое торрент? · Рейтинг и ограничения

Сайт не распространяет и не хранит электронные версии произведений, а лишь предоставляет доступ к создаваемому пользователями каталогу ссылок на торрент-файлы, которые содержат только списки хеш-сумм

[Профиль] [ЛС]
Показать сообщения:    
Ответить на тему

Текущее время: Сегодня 00:06

Часовой пояс: GMT + 4



Вы не можете начинать темы
Вы не можете отвечать на сообщения
Вы не можете редактировать свои сообщения
Вы не можете удалять свои сообщения
Вы не можете голосовать в опросах
Вы не можете прикреплять файлы к сообщениям
Вы не можете скачивать файлы