Однажды в Китае 2 / Once Upon A Time In China 2 / Wong Fei Hung II: Nam yi dong ji keung (Цуй Харк / Tsui Hark) [1992, Гонконг, боевик, мелодрама, приключения, биография, история, VHSRip] [FullScreen] AVO Павел Санаев (Стилан)

Ответить на тему
 
Автор Сообщение

user ®

Стаж: 13 лет

Сообщений: 15071

Пост Пост: #1 от 18-Ноя-2015 04:24

[Цитировать]

Однажды в Китае 2 / Once Upon A Time In China 2 / Wong Fei Hung II: Nam yi dong ji keung
[FullScreen]
Страна: Гонконг
Жанр: боевик, мелодрама, приключения, биография, история
Год выпуска: 1992
Продолжительность: 01:46:58
Перевод: Авторский (одноголосый закадровый) Павел Санаев (Стилан)
Cубтитры: нет
Режиссер: Цуй Харк / Tsui Hark
В ролях: Джет Ли, Розамунд Кван, Донни Йен, Дэвид Чианг, Ксин Ксин Ксионг, Йи Кван Ян
Описание: 1895 год, Китай. Крайняя националистическая организация «Белый Лотос» устраивает беспорядки во время международной конференции врачей. Трагическая участь ждет гостей — иностранцев.
В числе гостей съезда мастер Вонг. Вместе с переводчицей и своим приятелем они должны помешать террористам довести до конца кровавый план, который вверг бы страну в полный хаос и вызвать войну с мировыми державами…
Доп. информация: Оцифровка VHS (личный архив) и получение VHSRip alenavova
Эксклюзив для ***. При размещении данного релиза на других сайтах ссылка на автора alenavova обязательна.

Релиз
Сэмпл: https://yadi.sk/i/ciNrqXFUkWa8U
Качество видео: VHSRip
Формат видео: AVI
Видео: 704x528 (1.33:1), 25 fps, XviD build 73 ~1627 kbps avg, 0.17 bit/pixel
Аудио: 48 kHz, AC3 Dolby Digital, 2/0 (L,R) ch, ~192 kbps
MediaInfo
Однажды в Китае-2 - Once Upon A Time In China 2 - FS (by alenavova).avi
Format : AVI
Format/Info : Audio Video Interleave
File size : 1.37 GiB
Duration : 1h 46mn
Overall bit rate : 1 829 Kbps
Movie name : Однажды в Китае-2 - Once Upon A Time In China 2 - FS (by alenavova)
Director : by alenavova
Writing application : VirtualDubMod 1.5.10.3 | www.virtualdub-fr.org || (build 2550/release)
Copyright : Edich2
Comment : ***
Video
ID : 0
Format : MPEG-4 Visual
Format profile : Advanced Simple@L5
Format settings, BVOP : 2
Format settings, QPel : No
Format settings, GMC : No warppoints
Format settings, Matrix : Custom
Codec ID : XVID
Codec ID/Hint : XviD
Duration : 1h 46mn
Bit rate : 1 627 Kbps
Width : 704 pixels
Height : 528 pixels
Display aspect ratio : 4:3
Frame rate : 25.000 fps
Color space : YUV
Chroma subsampling : 4:2:0
Bit depth : 8 bits
Scan type : Progressive
Compression mode : Lossy
Bits/(Pixel*Frame) : 0.175
Stream size : 1.22 GiB (89%)
Writing library : XviD 73
Audio
ID : 1
Format : AC-3
Format/Info : Audio Coding 3
Mode extension : CM (complete main)
Format settings, Endianness : Big
Codec ID : 2000
Duration : 1h 46mn
Bit rate mode : Constant
Bit rate : 192 Kbps
Channel(s) : 2 channels
Channel positions : Front: L R
Sampling rate : 48.0 KHz
Bit depth : 16 bits
Compression mode : Lossy
Stream size : 147 MiB (10%)
Alignment : Split accross interleaves
Interleave, duration : 40 ms (1.00 video frame)
Interleave, preload duration : 500 ms
Скриншоты
Скачать

Скачать торрент! Однажды в Китае 2 / Once Upon A Time In China 2 / Wong Fei Hung II: Nam yi dong ji keung (Цуй Харк / Tsui Hark) [1992, Гонконг, боевик, мелодрама, приключения, биография, история, VHSRip] [FullScreen] AVO Павел Санаев (Стилан)

Как скачивать? · Что такое торрент? · Рейтинг и ограничения

Сайт не распространяет и не хранит электронные версии произведений, а лишь предоставляет доступ к создаваемому пользователями каталогу ссылок на торрент-файлы, которые содержат только списки хеш-сумм

[Профиль] [ЛС]
Показать сообщения:    
Ответить на тему

Текущее время: Сегодня 21:36

Часовой пояс: GMT + 4



Вы не можете начинать темы
Вы не можете отвечать на сообщения
Вы не можете редактировать свои сообщения
Вы не можете удалять свои сообщения
Вы не можете голосовать в опросах
Вы не можете прикреплять файлы к сообщениям
Вы не можете скачивать файлы